Mobile Suit Gundam III - BD 1080p v2.mkv


File Size4.969 GB (5,335,353,045 bytes)
DownloadClickNUpload: Part1, Part2, Part3, Part4, Part5
Jheberg: Part1, Part2, Part3, Part4, Part5, Part6
MultiUp: Part1, Part2, Part3, Part4, Part5, Part6
OpenLoad: Part1, Part2, Part3, Part4, Part5, Part6
Sendspace: Part1, Part2, Part3, Part4, Part5, Part6, Part7, Part8, Part9, Part10, Part11, Part12, Part13, Part14, Part15, Part16, Part17
SolidFiles: Part1, Part2, Part3, Part4, Part5, Part6, Part7, Part8, Part9, Part10, Part11
ZippyShare: Part1, Part2, Part3, Part4, Part5, Part6, Part7, Part8, Part9, Part10, Part11
HashesCRC32: 763EEF91, MD5: 4816F29729650728DBE021ABB73C0039, SHA1: 47A07F9D82E6D2DA8186F9A82E8BC2B4A29A4FA7, SHA256: C5BE1F52691D6B6C5DEE6ACE62DA3C81D6C2066E7EC0573A5D0221FE41E3F549, ED2K: 2B58EFBCB9F19719189F7FDEBE1A2326
Screenshots
screenshotscreenshotscreenshotscreenshotscreenshot
SubtitlesAll Attachments | BR [por, ASS]
Additional Info
General
Unique ID                                : 315304834811423743336177367538181316861 (0xED3580968EF4B23F1E900F37689BA0FD)
Complete name                            : Mobile Suit Gundam III - BD 1080p v2.mkv
Format                                   : Matroska
Format version                           : Version 4 / Version 2
File size                                : 4.97 GiB
Duration                                 : 2 h 20 min
Overall bit rate                         : 5 070 kb/s
Movie name                               : M.S. Gundam III
Encoded date                             : UTC 2018-01-25 22:59:55
Writing application                      : mkvmerge v20.0.0 ('I Am The Sun') 64-bit
Writing library                          : libebml v1.3.5 + libmatroska v1.4.8
Attachments                              : arialbd.ttf / BOOKOSB.TTF / BOOKOSBI.TTF / ERASDEMI.TTF / GillSansDisplayMTPro-Bold.otf

Video
ID                                       : 1
Format                                   : AVC
Format/Info                              : Advanced Video Codec
Format profile                           : High@L4.1
Format settings, CABAC                   : Yes
Format settings, ReFrames                : 6 frames
Codec ID                                 : V_MPEG4/ISO/AVC
Duration                                 : 2 h 20 min
Bit rate                                 : 5 000 kb/s
Width                                    : 1 440 pixels
Height                                   : 1 080 pixels
Display aspect ratio                     : 4:3
Frame rate mode                          : Constant
Frame rate                               : 23.976 (24000/1001) FPS
Color space                              : YUV
Chroma subsampling                       : 4:2:0
Bit depth                                : 8 bits
Scan type                                : Progressive
Bits/(Pixel*Frame)                       : 0.134
Stream size                              : 4.80 GiB (97%)
Title                                    : NAOKI-Raws
Writing library                          : x264 core 148 r2694bm 3b70645
Encoding settings                        : cabac=1 / ref=6 / deblock=0:1:1 / analyse=0x3:0x133 / me=umh / subme=9 / psy=1 / psy_rd=0.40:0.00 / mixed_ref=1 / me_range=24 / chroma_me=1 / trellis=1 / 8x8dct=1 / cqm=0 / deadzone=21,11 / fast_pskip=0 / chroma_qp_offset=-2 / threads=6 / lookahead_threads=1 / sliced_threads=0 / nr=0 / decimate=1 / interlaced=0 / bluray_compat=0 / constrained_intra=0 / bframes=3 / b_pyramid=2 / b_adapt=2 / b_bias=0 / direct=3 / weightb=1 / open_gop=0 / weightp=2 / keyint=250 / keyint_min=23 / scenecut=40 / intra_refresh=0 / rc_lookahead=50 / rc=2pass / mbtree=1 / bitrate=5000 / ratetol=1.0 / qcomp=0.60 / qpmin=0 / qpmax=69 / qpstep=4 / cplxblur=20.0 / qblur=0.5 / ip_ratio=1.40 / aq=3:1.40
Language                                 : Japanese
Default                                  : Yes
Forced                                   : No
Color range                              : Limited
Color primaries                          : BT.601 NTSC
Transfer characteristics                 : BT.601
Matrix coefficients                      : BT.601

Audio
ID                                       : 2
Format                                   : AAC
Format/Info                              : Advanced Audio Codec
Format profile                           : LC
Codec ID                                 : A_AAC
Duration                                 : 2 h 20 min
Bit rate                                 : 164 kb/s
Channel(s)                               : 2 channels
Channel positions                        : Front: L R
Sampling rate                            : 48.0 kHz
Frame rate                               : 46.875 FPS (1024 spf)
Compression mode                         : Lossy
Stream size                              : 165 MiB (3%)
Title                                    : qaac127
Language                                 : Japanese
Default                                  : Yes
Forced                                   : No

Text
ID                                       : 3
Format                                   : ASS
Codec ID                                 : S_TEXT/ASS
Codec ID/Info                            : Advanced Sub Station Alpha
Duration                                 : 2 h 19 min
Bit rate                                 : 98 b/s
Count of elements                        : 1825
Compression mode                         : Lossless
Stream size                              : 101 KiB (0%)
Title                                    : BR
Language                                 : Portuguese
Default                                  : Yes
Forced                                   : No

Menu
00:00:00.000                             : en:Chapter 1
00:11:15.267                             : en:Chapter 2
00:16:04.567                             : en:Chapter 3
00:27:24.333                             : en:Chapter 4
00:37:51.933                             : en:Chapter 5
00:53:46.133                             : en:Chapter 6
01:09:48.967                             : en:Chapter 7
01:16:26.667                             : en:Chapter 8
01:26:24.667                             : en:Chapter 9
01:35:56.367                             : en:Chapter 10
01:45:22.900                             : en:Chapter 11
01:55:20.267                             : en:Chapter 12
02:06:34.467                             : en:Chapter 13
02:16:51.700                             : en:Chapter 14
02:20:04.333                             : en:Chapter 15
02:20:12.167                             : en:Chapter 16

Other Files in this Torrent
Mobile Suit Gundam III - BD 1080p v2.mkv
beta
Anime DDL+NZB mirror
Current Time: 19/06/2024 19:40



About/FAQs

Discord