Mobile Suit Gundam I - BD 1080p v2.mkv


File Size5.016 GB (5,385,961,769 bytes)
DownloadClickNUpload: Part1, Part2, Part3, Part4, Part5, Part6
Jheberg: Part1, Part2, Part3, Part4, Part5, Part6
MultiUp: Part1, Part2, Part3, Part4, Part5, Part6
OpenLoad: Part1, Part2, Part3, Part4, Part5, Part6
Sendspace: Part1, Part2, Part3, Part4, Part5, Part6, Part7, Part8, Part9, Part10, Part11, Part12, Part13, Part14, Part15, Part16, Part17, Part18
SolidFiles: Part1, Part2, Part3, Part4, Part5, Part6, Part7, Part8, Part9, Part10, Part11
ZippyShare: Part1, Part2, Part3, Part4, Part5, Part6, Part7, Part8, Part9, Part10, Part11
HashesCRC32: F9DDBBD9, MD5: 690E47DEE16FB723BCE2B8CF20F7BB34, SHA1: 835DC7BDF5ECAF8533D9E026DF82D471E00AC602, SHA256: 9B7A134A526608479790A94EEAEF8A00B67FBFE10F241CF70875714DE731117E, ED2K: 232A3CD69D780C30E821E87D31A392E5
Screenshots
screenshotscreenshotscreenshotscreenshotscreenshot
SubtitlesAll Attachments | BR [por, ASS]
Additional Info
General
Unique ID                                : 38281818795547089856770835760113424106 (0x1CCCCF63A830A65FE7A7BF4A44BA96EA)
Complete name                            : Mobile Suit Gundam I - BD 1080p v2.mkv
Format                                   : Matroska
Format version                           : Version 4 / Version 2
File size                                : 5.02 GiB
Duration                                 : 2 h 19 min
Overall bit rate                         : 5 150 kb/s
Movie name                               : M.S. Gundam I
Encoded date                             : UTC 2018-01-25 22:48:50
Writing application                      : mkvmerge v20.0.0 ('I Am The Sun') 64-bit
Writing library                          : libebml v1.3.5 + libmatroska v1.4.8
Attachments                              : arialbd.ttf / BOOKOSB.TTF / BOOKOSBI.TTF / ERASDEMI.TTF / GillSansDisplayMTPro-Bold.otf

Video
ID                                       : 1
Format                                   : AVC
Format/Info                              : Advanced Video Codec
Format profile                           : High@L4.1
Format settings, CABAC                   : Yes
Format settings, ReFrames                : 6 frames
Codec ID                                 : V_MPEG4/ISO/AVC
Duration                                 : 2 h 19 min
Bit rate                                 : 5 000 kb/s
Width                                    : 1 440 pixels
Height                                   : 1 080 pixels
Display aspect ratio                     : 4:3
Frame rate mode                          : Constant
Frame rate                               : 23.976 (24000/1001) FPS
Color space                              : YUV
Chroma subsampling                       : 4:2:0
Bit depth                                : 8 bits
Scan type                                : Progressive
Bits/(Pixel*Frame)                       : 0.134
Stream size                              : 4.87 GiB (97%)
Title                                    : NAOKI-Raws
Writing library                          : x264 core 148 r2694bm 3b70645
Encoding settings                        : cabac=1 / ref=6 / deblock=0:1:1 / analyse=0x3:0x133 / me=umh / subme=9 / psy=1 / psy_rd=0.40:0.00 / mixed_ref=1 / me_range=24 / chroma_me=1 / trellis=1 / 8x8dct=1 / cqm=0 / deadzone=21,11 / fast_pskip=0 / chroma_qp_offset=-2 / threads=6 / lookahead_threads=1 / sliced_threads=0 / nr=0 / decimate=1 / interlaced=0 / bluray_compat=0 / constrained_intra=0 / bframes=3 / b_pyramid=2 / b_adapt=2 / b_bias=0 / direct=3 / weightb=1 / open_gop=0 / weightp=2 / keyint=250 / keyint_min=23 / scenecut=40 / intra_refresh=0 / rc_lookahead=50 / rc=2pass / mbtree=1 / bitrate=5000 / ratetol=1.0 / qcomp=0.60 / qpmin=0 / qpmax=69 / qpstep=4 / cplxblur=20.0 / qblur=0.5 / ip_ratio=1.40 / aq=3:1.40
Language                                 : Portuguese
Default                                  : Yes
Forced                                   : No
Color range                              : Limited
Color primaries                          : BT.601 NTSC
Transfer characteristics                 : BT.601
Matrix coefficients                      : BT.601

Audio
ID                                       : 2
Format                                   : AAC
Format/Info                              : Advanced Audio Codec
Format profile                           : LC
Codec ID                                 : A_AAC
Duration                                 : 2 h 19 min
Bit rate                                 : 144 kb/s
Channel(s)                               : 2 channels
Channel positions                        : Front: L R
Sampling rate                            : 48.0 kHz
Frame rate                               : 46.875 FPS (1024 spf)
Compression mode                         : Lossy
Stream size                              : 146 MiB (3%)
Title                                    : qaac127
Language                                 : Japanese
Default                                  : Yes
Forced                                   : No

Text
ID                                       : 3
Format                                   : ASS
Codec ID                                 : S_TEXT/ASS
Codec ID/Info                            : Advanced Sub Station Alpha
Duration                                 : 2 h 18 min
Bit rate                                 : 98 b/s
Count of elements                        : 1816
Compression mode                         : Lossless
Stream size                              : 99.6 KiB (0%)
Title                                    : BR
Language                                 : Portuguese
Default                                  : Yes
Forced                                   : No

Menu
00:00:00.000                             : en:Chapter 1
00:13:10.833                             : en:Chapter 2
00:27:46.533                             : en:Chapter 3
00:41:32.833                             : en:Chapter 4
00:56:16.833                             : en:Chapter 5
01:10:10.333                             : en:Chapter 6
01:24:19.567                             : en:Chapter 7
01:36:40.733                             : en:Chapter 8
01:50:52.567                             : en:Chapter 9
02:04:58.400                             : en:Chapter 10

Other Files in this Torrent
Mobile Suit Gundam I - BD 1080p v2.mkv
beta
Anime DDL+NZB mirror
Current Time: 13/06/2024 23:37



About/FAQs

Discord