Mobile Suit Gundam II - BD 1080p v2.mkv


File Size4.821 GB (5,176,812,118 bytes)
DownloadClickNUpload: Part1, Part2, Part3, Part4, Part5
Jheberg: Part1, Part2, Part3, Part4, Part5
MultiUp: Part1, Part2, Part3, Part4, Part5
OpenLoad: Part1, Part2, Part3, Part4, Part5
Sendspace: Part1, Part2, Part3, Part4, Part5, Part6, Part7, Part8, Part9, Part10, Part11, Part12, Part13, Part14, Part15, Part16, Part17
SolidFiles: Part1, Part2, Part3, Part4, Part5, Part6, Part7, Part8, Part9, Part10
ZippyShare: Part1, Part2, Part3, Part4, Part5, Part6, Part7, Part8, Part9, Part10
HashesCRC32: 9F496C93, MD5: 3301392C753916BCC3BCEA6625143756, SHA1: 708A8E1128DB904903325E968096CD15B7576C5C, SHA256: 224CEEB5849A682285BFCCA31A085F5C065EB5C15F3E3F88AF24496FFF14B0CC, ED2K: C9249C0FC1E91C880BEE8B42254A5948
Screenshots
screenshotscreenshotscreenshotscreenshotscreenshot
SubtitlesAll Attachments | BR [por, ASS]
Additional Info
General
Unique ID                                : 122484992076634263059339378626918639049 (0x5C25C05B9BE7122C8E72C7950A4465C9)
Complete name                            : Mobile Suit Gundam II - BD 1080p v2.mkv
Format                                   : Matroska
Format version                           : Version 4 / Version 2
File size                                : 4.82 GiB
Duration                                 : 2 h 13 min
Overall bit rate                         : 5 154 kb/s
Movie name                               : M.S Gundam II
Encoded date                             : UTC 2018-01-25 22:55:52
Writing application                      : mkvmerge v20.0.0 ('I Am The Sun') 64-bit
Writing library                          : libebml v1.3.5 + libmatroska v1.4.8
Attachments                              : arialbd.ttf / BOOKOSB.TTF / BOOKOSBI.TTF / ERASDEMI.TTF / GillSansDisplayMTPro-Bold.otf

Video
ID                                       : 1
Format                                   : AVC
Format/Info                              : Advanced Video Codec
Format profile                           : High@L4.1
Format settings, CABAC                   : Yes
Format settings, ReFrames                : 6 frames
Codec ID                                 : V_MPEG4/ISO/AVC
Duration                                 : 2 h 13 min
Bit rate                                 : 5 000 kb/s
Width                                    : 1 440 pixels
Height                                   : 1 080 pixels
Display aspect ratio                     : 4:3
Frame rate mode                          : Constant
Frame rate                               : 23.976 (24000/1001) FPS
Color space                              : YUV
Chroma subsampling                       : 4:2:0
Bit depth                                : 8 bits
Scan type                                : Progressive
Bits/(Pixel*Frame)                       : 0.134
Stream size                              : 4.67 GiB (97%)
Title                                    : NAOKI-Raw
Writing library                          : x264 core 148 r2694bm 3b70645
Encoding settings                        : cabac=1 / ref=6 / deblock=0:1:1 / analyse=0x3:0x133 / me=umh / subme=9 / psy=1 / psy_rd=0.40:0.00 / mixed_ref=1 / me_range=24 / chroma_me=1 / trellis=1 / 8x8dct=1 / cqm=0 / deadzone=21,11 / fast_pskip=0 / chroma_qp_offset=-2 / threads=6 / lookahead_threads=1 / sliced_threads=0 / nr=0 / decimate=1 / interlaced=0 / bluray_compat=0 / constrained_intra=0 / bframes=3 / b_pyramid=2 / b_adapt=2 / b_bias=0 / direct=3 / weightb=1 / open_gop=0 / weightp=2 / keyint=250 / keyint_min=23 / scenecut=40 / intra_refresh=0 / rc_lookahead=50 / rc=2pass / mbtree=1 / bitrate=5000 / ratetol=1.0 / qcomp=0.60 / qpmin=0 / qpmax=69 / qpstep=4 / cplxblur=20.0 / qblur=0.5 / ip_ratio=1.40 / aq=3:1.40
Language                                 : Japanese
Default                                  : Yes
Forced                                   : No
Color range                              : Limited
Color primaries                          : BT.601 NTSC
Transfer characteristics                 : BT.601
Matrix coefficients                      : BT.601

Audio
ID                                       : 2
Format                                   : AAC
Format/Info                              : Advanced Audio Codec
Format profile                           : LC
Codec ID                                 : A_AAC
Duration                                 : 2 h 13 min
Bit rate                                 : 156 kb/s
Channel(s)                               : 2 channels
Channel positions                        : Front: L R
Sampling rate                            : 48.0 kHz
Frame rate                               : 46.875 FPS (1024 spf)
Compression mode                         : Lossy
Stream size                              : 149 MiB (3%)
Title                                    : qaac127
Language                                 : Japanese
Default                                  : Yes
Forced                                   : No

Text
ID                                       : 3
Format                                   : ASS
Codec ID                                 : S_TEXT/ASS
Codec ID/Info                            : Advanced Sub Station Alpha
Duration                                 : 2 h 13 min
Bit rate                                 : 98 b/s
Count of elements                        : 1817
Compression mode                         : Lossless
Stream size                              : 96.4 KiB (0%)
Title                                    : BR
Language                                 : Portuguese
Default                                  : Yes
Forced                                   : No

Menu
00:00:00.000                             : en:Chapter 1
00:11:03.833                             : en:Chapter 2
00:25:58.833                             : en:Chapter 3
00:38:45.167                             : en:Chapter 4
00:53:19.833                             : en:Chapter 5
01:07:18.333                             : en:Chapter 6
01:21:38.933                             : en:Chapter 7
01:33:57.767                             : en:Chapter 8
01:47:15.933                             : en:Chapter 9
02:01:27.767                             : en:Chapter 10

Other Files in this Torrent
Mobile Suit Gundam II - BD 1080p v2.mkv
beta
Anime DDL+NZB mirror
Current Time: 19/06/2024 21:08



About/FAQs

Discord