File Size231.9 MB (243,171,102 bytes)
DownloadClickNUpload | Jheberg | MultiUp
  • BdUpload
  • DownAce
  • Fichier
  • FileCloud
  • Filerio
  • FilesCdn
  • IndiShare
  • Kbagi
  • Turbobit
  • UpToBox
  • Uppit
| OpenLoad | Sendspace | SolidFiles | ZippyShare
HashesCRC32: B72B0CB6, MD5: 18E8A8086C43267AEBAE1CFFC4AADA6F, SHA1: 65B6519F10FD432F4E4AE734E42151C51287B9CA, SHA256: EE5C8DF6A5613F01AD7A7093ED8B9952896FB71679939C1B54846E8867FE0968, ED2K: DC78D1221A36AF4CBB0E3FEFC0EEEE01
Screenshots
screenshotscreenshotscreenshotscreenshotscreenshot
Additional Info
General
Complete name                            : Mob Psycho 100 S2 - 10 (720p x264 AAC Hardsubs).mp4
Format                                   : MPEG-4
Format profile                           : Base Media
Codec ID                                 : isom (isom)
File size                                : 232 MiB
Duration                                 : 24 min 10 s
Overall bit rate mode                    : Variable
Overall bit rate                         : 1 342 kb/s
Encoded date                             : UTC 2019-09-18 01:04:15
Tagged date                              : UTC 2019-09-18 01:04:15

Video
ID                                       : 1
Format                                   : AVC
Format/Info                              : Advanced Video Codec
Format profile                           : High@L3.1
Format settings                          : CABAC / 4 Ref Frames
Format settings, CABAC                   : Yes
Format settings, ReFrames                : 4 frames
Codec ID                                 : avc1
Codec ID/Info                            : Advanced Video Coding
Duration                                 : 24 min 10 s
Bit rate                                 : 1 208 kb/s
Maximum bit rate                         : 19.6 Mb/s
Width                                    : 1 280 pixels
Height                                   : 720 pixels
Display aspect ratio                     : 16:9
Frame rate mode                          : Constant
Frame rate                               : 23.976 (24000/1001) FPS
Color space                              : YUV
Chroma subsampling                       : 4:2:0
Bit depth                                : 8 bits
Scan type                                : Progressive
Bits/(Pixel*Frame)                       : 0.055
Stream size                              : 209 MiB (90%)
Writing library                          : x264 core 148 r2694 3b70645
Encoding settings                        : cabac=1 / ref=1 / deblock=1:1:1 / analyse=0x3:0x113 / me=hex / subme=2 / psy=1 / psy_rd=0.40:0.00 / mixed_ref=0 / me_range=16 / chroma_me=1 / trellis=0 / 8x8dct=1 / cqm=0 / deadzone=21,11 / fast_pskip=1 / chroma_qp_offset=0 / threads=3 / lookahead_threads=1 / sliced_threads=0 / nr=0 / decimate=1 / interlaced=0 / bluray_compat=0 / constrained_intra=0 / bframes=5 / b_pyramid=2 / b_adapt=1 / b_bias=0 / direct=1 / weightb=1 / open_gop=0 / weightp=1 / keyint=250 / keyint_min=23 / scenecut=40 / intra_refresh=0 / rc_lookahead=10 / rc=crf / mbtree=1 / crf=23.0 / qcomp=0.60 / qpmin=0 / qpmax=69 / qpstep=4 / ip_ratio=1.40 / aq=1:0.60
Tagged date                              : UTC 2019-09-18 01:05:02
Codec configuration box                  : avcC

Audio
ID                                       : 2
Format                                   : AAC LC
Format/Info                              : Advanced Audio Codec Low Complexity
Codec ID                                 : mp4a-40-2
Duration                                 : 24 min 10 s
Bit rate mode                            : Variable
Bit rate                                 : 128 kb/s
Maximum bit rate                         : 138 kb/s
Channel(s)                               : 2 channels
Channel layout                           : L R
Sampling rate                            : 44.1 kHz
Frame rate                               : 43.066 FPS (1024 SPF)
Compression mode                         : Lossy
Stream size                              : 22.1 MiB (10%)
Language                                 : Japanese
Encoded date                             : UTC 2019-09-18 01:04:33
Tagged date                              : UTC 2019-09-18 01:05:02

Other Files in this Torrent
Mob Psycho 100 S2 - 10 (720p x264 AAC Hardsubs).mp4
beta
Anime DDL+NZB mirror
Current Time: 15/11/2019 23:10



About/FAQs