[MK-Pn8] Akame ga Kill! - 07v2 [BD 720p][Dual][7C041BF4].mkv


File Size409.5 MB (429,429,939 bytes)
DownloadClickNUpload | Go4Up | Jheberg | MultiUp
  • ClickNupload
  • Fichier
  • Filerio
  • Free
  • Fufox
  • HugeFiles
  • Mightyupload
  • ToutBox
  • Turbobit
  • UpToBox
  • Uplea
  • UploadBaz
  • Uploadable
  • Uploaded
  • Uppit
  • Userscloud
| OpenLoad | SolidFiles
Sendspace: Part1, Part2
HashesCRC32: 7C041BF4, MD5: 29A80E4BFD6664E6EF35EEF13F44C7E6, SHA1: 667A5A527691A8254EC5DD6BAE4B35983EE14FEB, SHA256: 00B2324034810204A5043DC19C9C3C35ED33BCA6D17CF3038BD0AD748F730E57, ED2K: 353C7B7C8500F888B570A872946F76B9
Screenshots
screenshotscreenshotscreenshotscreenshotscreenshot
SubtitlesAll Attachments | [MK] Signs & Songs [eng, ASS], [Vivid-Asenshi] Full Subtitles [jpn, ASS]
Additional Info
General
Unique ID                                : 186348460555085493319428091945319984637 (0x8C3168747AFD557CA0ED165AE8BCEDFD)
Complete name                            : [MK-Pn8] Akame ga Kill! - 07v2 [BD 720p][Dual][7C041BF4].mkv
Format                                   : Matroska
Format version                           : Version 4 / Version 2
File size                                : 410 MiB
Duration                                 : 23 min 41 s
Overall bit rate                         : 2 417 kb/s
Movie name                               : [MK-Pn8] Akame ga Kill! - 07v2 [BD 720p][Dual]
Encoded date                             : UTC 2016-02-02 09:31:59
Writing application                      : mkvmerge v8.8.0 ('Wind at my back') 64bit
Writing library                          : libebml v1.3.3 + libmatroska v1.4.4
Attachments                              : To forgive.ttf / 9SALERNO.TTF / CK Marker.ttf / HumanaSerifITCLight.ttf / KozukaMinchoProStrp-EL.otf / LinLibertine_R.ttf / Sub-Alegreya-Bold.otf / Sub-Alegreya-BoldItalic.otf

Video
ID                                       : 1
Format                                   : AVC
Format/Info                              : Advanced Video Codec
Format profile                           : High@L4.1
Format settings, CABAC                   : Yes
Format settings, ReFrames                : 9 frames
Codec ID                                 : V_MPEG4/ISO/AVC
Duration                                 : 23 min 41 s
Bit rate                                 : 1 651 kb/s
Width                                    : 1 280 pixels
Height                                   : 720 pixels
Display aspect ratio                     : 16:9
Frame rate mode                          : Constant
Frame rate                               : 23.976 (24000/1001) FPS
Color space                              : YUV
Chroma subsampling                       : 4:2:0
Bit depth                                : 8 bits
Scan type                                : Progressive
Bits/(Pixel*Frame)                       : 0.075
Stream size                              : 280 MiB (68%)
Title                                    : [VCB] JapBD 720p
Writing library                          : x264 core 142 r2431+42 c69a006 tMod [8-bit@all X86_64]
Encoding settings                        : cabac=1 / ref=9 / deblock=1:0:0 / analyse=0x3:0x133 / me=tesa / subme=10 / psy=1 / fade_compensate=0.20 / psy_rd=0.00:0.20 / mixed_ref=1 / me_range=16 / chroma_me=1 / trellis=2 / 8x8dct=1 / cqm=0 / deadzone=21,11 / fast_pskip=0 / chroma_qp_offset=-1 / threads=12 / lookahead_threads=2 / sliced_threads=0 / nr=0 / decimate=1 / interlaced=0 / bluray_compat=0 / constrained_intra=0 / fgo=1 / bframes=8 / b_pyramid=2 / b_adapt=2 / b_bias=0 / direct=3 / weightb=1 / open_gop=0 / weightp=2 / keyint=600 / keyint_min=1 / scenecut=40 / intra_refresh=0 / rc_lookahead=70 / rc=crf / mbtree=1 / crf=18.0000 / qcomp=0.70 / qpmin=0:0:0 / qpmax=69:69:69 / qpstep=4 / vbv_maxrate=15000 / vbv_bufsize=18000 / crf_max=0.0 / nal_hrd=none / filler=0 / ip_ratio=1.40 / aq=1:0.90 / aq-sensitivity=10.00 / aq-factor=1.00:1.00:1.00 / aq2=0 / aq3=0
Language                                 : Japanese
Default                                  : Yes
Forced                                   : No
Color range                              : Limited
Matrix coefficients                      : BT.709

Audio #1
ID                                       : 2
Format                                   : AAC
Format/Info                              : Advanced Audio Codec
Format profile                           : LC
Codec ID                                 : A_AAC
Duration                                 : 23 min 41 s
Bit rate                                 : 622 kb/s
Channel(s)                               : 6 channels
Channel positions                        : Front: L C R, Side: L R, LFE
Sampling rate                            : 48.0 kHz
Frame rate                               : 46.875 FPS (1024 spf)
Compression mode                         : Lossy
Delay relative to video                  : 8 ms
Stream size                              : 105 MiB (26%)
Title                                    : [MK-Pn8] 5.1Ch AAC @~650kbps
Language                                 : English
Default                                  : Yes
Forced                                   : No

Audio #2
ID                                       : 3
Format                                   : AAC
Format/Info                              : Advanced Audio Codec
Format profile                           : LC
Codec ID                                 : A_AAC
Duration                                 : 23 min 41 s
Bit rate                                 : 132 kb/s
Channel(s)                               : 2 channels
Channel positions                        : Front: L R
Sampling rate                            : 48.0 kHz
Frame rate                               : 46.875 FPS (1024 spf)
Compression mode                         : Lossy
Stream size                              : 22.3 MiB (5%)
Title                                    : [VCB] 2.0Ch AAC
Language                                 : Japanese
Default                                  : No
Forced                                   : No

Text #1
ID                                       : 4
Format                                   : ASS
Codec ID                                 : S_TEXT/ASS
Codec ID/Info                            : Advanced Sub Station Alpha
Duration                                 : 21 min 56 s
Bit rate                                 : 310 b/s
Count of elements                        : 370
Compression mode                         : Lossless
Stream size                              : 49.8 KiB (0%)
Title                                    : [MK] Signs & Songs
Language                                 : English
Default                                  : Yes
Forced                                   : No

Text #2
ID                                       : 5
Format                                   : ASS
Codec ID                                 : S_TEXT/ASS
Codec ID/Info                            : Advanced Sub Station Alpha
Duration                                 : 23 min 38 s
Bit rate                                 : 416 b/s
Count of elements                        : 778
Compression mode                         : Lossless
Stream size                              : 72.2 KiB (0%)
Title                                    : [Vivid-Asenshi] Full Subtitles
Language                                 : Japanese
Default                                  : No
Forced                                   : No

Menu
00:00:00.000                             : :Intro
00:01:30.966                             : :OP
00:03:00.972                             : :Episode
00:21:54.939                             : :ED
00:23:24.945                             : :Preview

Other Files in this Torrent
[MK-Pn8] Akame ga Kill! - 07v2 [BD 720p][Dual][7C041BF4].mkv
beta
Anime DDL+NZB mirror
Current Time: 12/06/2024 19:07



About/FAQs

Discord