[LostYears] Sword Art Online - Alicization - War of Underworld - 06 (S04E06) (WEB 1080p Hi10P AAC) [D185A441].mkv


File Size1.078 GB (1,157,318,587 bytes)
DownloadAnonFiles | ClickNUpload | DropAPK
Free: Part1, Part2
MultiUp: Part1
  • BdUpload
  • DownAce
  • Fichier
  • FileCloud
  • Filerio
  • FilesCdn
  • IndiShare
  • Kbagi
  • Turbobit
  • UpToBox
  • Uppit
, Part2
  • BdUpload
  • DownAce
  • Fichier
  • FileCloud
  • Filerio
  • FilesCdn
  • IndiShare
  • Kbagi
  • Turbobit
  • UpToBox
  • Uppit
, Part3
  • BdUpload
  • DownAce
  • Fichier
  • FileCloud
  • Filerio
  • FilesCdn
  • IndiShare
  • Kbagi
  • Turbobit
  • UpToBox
  • Uppit

Sendspace: Part1, Part2, Part3, Part4
SolidFiles: Part1, Part2, Part3
ZippyShare: Part1, Part2, Part3
HashesCRC32: D185A441, MD5: 409CD9D28E0F268565504CF10DDBC110, SHA1: A23456C849926E201C21C1DC8552C4F1CCA6FF10, SHA256: DC43E123B6D7E367A00954CEAAA60E8908074FD96394E1A465C746510A6B2EB2, ED2K: 2C422C5B50A665622B766BF0E8E6491E
Screenshots
screenshotscreenshotscreenshotscreenshotscreenshot
SubtitlesAll Attachments | Signs/Songs [MTBB] [eng, ASS], Subtitles [MTBB] [jpn, ASS], Subtitles (Honorifics) [MTBB] [jpn, ASS]
Additional Info
General
Unique ID                                : 326473443078836027394468682121683257039 (0xF59C7F7D67979938AB615F0D5E49C6CF)
Complete name                            : [LostYears] Sword Art Online - Alicization - War of Underworld - 06 (S04E06) (WEB 1080p Hi10P AAC) [D185A441].mkv
Format                                   : Matroska
Format version                           : Version 4
File size                                : 1.08 GiB
Duration                                 : 23 min 41 s
Overall bit rate                         : 6 515 kb/s
Encoded date                             : UTC 2020-02-23 14:42:32
Writing application                      : mkvmerge v43.0.0 ('The Quartermaster') 64-bit
Writing library                          : libebml v1.3.10 + libmatroska v1.5.2
Attachments                              : BELLGOTHIC-BOLD.TTF / FUTURA.OTF / GandhiSans-Bold.otf / GandhiSans-BoldItalic.otf / OPTIMALTSTD-BOLD.OTF / QUADRAAT-BOLD.OTF

Video
ID                                       : 1
Format                                   : AVC
Format/Info                              : Advanced Video Codec
Format profile                           : High 10@L5.1
Format settings                          : CABAC / 16 Ref Frames
Format settings, CABAC                   : Yes
Format settings, ReFrames                : 16 frames
Codec ID                                 : V_MPEG4/ISO/AVC
Duration                                 : 23 min 40 s
Bit rate                                 : 6 218 kb/s
Width                                    : 1 920 pixels
Height                                   : 1 080 pixels
Display aspect ratio                     : 16:9
Frame rate mode                          : Constant
Frame rate                               : 23.976 (24000/1001) FPS
Color space                              : YUV
Chroma subsampling                       : 4:2:0
Bit depth                                : 10 bits
Scan type                                : Progressive
Bits/(Pixel*Frame)                       : 0.125
Stream size                              : 1.03 GiB (95%)
Title                                    : 1080p Hi10P WEB x264 [MTBB]
Writing library                          : x264 core 152 r2851 ba24899
Encoding settings                        : cabac=1 / ref=16 / deblock=1:0:0 / analyse=0x3:0x133 / me=umh / subme=10 / psy=1 / psy_rd=1.00:0.00 / mixed_ref=1 / me_range=24 / chroma_me=1 / trellis=2 / 8x8dct=1 / cqm=0 / deadzone=21,11 / fast_pskip=1 / chroma_qp_offset=-2 / threads=6 / lookahead_threads=1 / sliced_threads=0 / nr=0 / decimate=1 / interlaced=0 / bluray_compat=0 / constrained_intra=0 / bframes=8 / b_pyramid=2 / b_adapt=2 / b_bias=0 / direct=3 / weightb=1 / open_gop=0 / weightp=2 / keyint=250 / keyint_min=23 / scenecut=40 / intra_refresh=0 / rc_lookahead=60 / rc=crf / mbtree=1 / crf=17.0 / qcomp=0.60 / qpmin=0 / qpmax=81 / qpstep=4 / ip_ratio=1.40 / aq=1:1.00
Language                                 : Japanese
Default                                  : Yes
Forced                                   : No
Color range                              : Limited
Matrix coefficients                      : BT.709

Audio #1
ID                                       : 2
Format                                   : AAC LC
Format/Info                              : Advanced Audio Codec Low Complexity
Codec ID                                 : A_AAC-2
Duration                                 : 23 min 40 s
Bit rate                                 : 151 kb/s
Channel(s)                               : 2 channels
Channel layout                           : L R
Sampling rate                            : 44.1 kHz
Frame rate                               : 43.066 FPS (1024 SPF)
Compression mode                         : Lossy
Delay relative to video                  : 22 ms
Stream size                              : 25.6 MiB (2%)
Title                                    : AAC 2.0 [KaiDubs]
Language                                 : English
Default                                  : Yes
Forced                                   : No

Audio #2
ID                                       : 3
Format                                   : AAC LC
Format/Info                              : Advanced Audio Codec Low Complexity
Codec ID                                 : A_AAC-2
Duration                                 : 23 min 40 s
Bit rate                                 : 128 kb/s
Channel(s)                               : 2 channels
Channel layout                           : L R
Sampling rate                            : 44.1 kHz
Frame rate                               : 43.066 FPS (1024 SPF)
Compression mode                         : Lossy
Stream size                              : 21.7 MiB (2%)
Title                                    : AAC 2.0 [MTBB]
Language                                 : Japanese
Default                                  : No
Forced                                   : No

Text #1
ID                                       : 4
Format                                   : ASS
Codec ID                                 : S_TEXT/ASS
Codec ID/Info                            : Advanced Sub Station Alpha
Duration                                 : 23 min 37 s
Bit rate                                 : 5 759 b/s
Count of elements                        : 345
Compression mode                         : Lossless
Stream size                              : 996 KiB (0%)
Title                                    : Signs/Songs [MTBB]
Language                                 : English
Default                                  : Yes
Forced                                   : Yes

Text #2
ID                                       : 5
Format                                   : ASS
Codec ID                                 : S_TEXT/ASS
Codec ID/Info                            : Advanced Sub Station Alpha
Duration                                 : 23 min 37 s
Bit rate                                 : 5 802 b/s
Count of elements                        : 480
Compression mode                         : Lossless
Stream size                              : 1 004 KiB (0%)
Title                                    : Subtitles [MTBB]
Language                                 : Japanese
Default                                  : No
Forced                                   : No

Text #3
ID                                       : 6
Format                                   : ASS
Codec ID                                 : S_TEXT/ASS
Codec ID/Info                            : Advanced Sub Station Alpha
Duration                                 : 23 min 37 s
Bit rate                                 : 5 802 b/s
Count of elements                        : 480
Compression mode                         : Lossless
Stream size                              : 1 004 KiB (0%)
Title                                    : Subtitles (Honorifics) [MTBB]
Language                                 : Japanese
Default                                  : No
Forced                                   : No

Menu
00:00:00.033                             : en:Intro
00:04:19.980                             : en:OP
00:05:50.000                             : en:Episode
00:22:04.970                             : en:ED
00:23:34.980                             : en:Preview

Other Files in this Torrent
[LostYears] Sword Art Online - Alicization - War of Underworld - 06 (S04E06) (WEB 1080p Hi10P AAC) [D185A441].mkv
beta
Anime DDL+NZB mirror
Current Time: 02/12/2021 23:55



About/FAQs

Discord