[LostYears] Sword Art Online - Alicization - War of Underworld - 03v2 (S04E03) (WEB 1080p Hi10P AAC) [8C207C6B].mkv


File Size661.2 MB (693,306,993 bytes)
DownloadAnonFiles | ClickNUpload | DropAPK | Free
MultiUp: Part1
  • BdUpload
  • DownAce
  • Fichier
  • FileCloud
  • Filerio
  • FilesCdn
  • IndiShare
  • Kbagi
  • Turbobit
  • UpToBox
  • Uppit
, Part2
  • BdUpload
  • DownAce
  • Fichier
  • FileCloud
  • Filerio
  • FilesCdn
  • IndiShare
  • Kbagi
  • Turbobit
  • UpToBox
  • Uppit

Sendspace: Part1, Part2, Part3
SolidFiles: Part1, Part2
ZippyShare: Part1, Part2
HashesCRC32: 8C207C6B, MD5: 42A8DEEF3866F618E1F7ADF388CEE6E3, SHA1: 8D6B151EC76D5A3BB86D7271DB1F54A15F2E4971, SHA256: 9B2C4E8BAA0E2D55C8089EFA3AAF48A14AF3D9657FD791B6A98102DD26BE103D, ED2K: 0B34DC3E8BF31F05E775DC32D9A37554
Screenshots
screenshotscreenshotscreenshotscreenshotscreenshot
SubtitlesAll Attachments | Signs/Songs [MTBB] [eng, ASS], Subtitles [MTBB] [jpn, ASS], Subtitles (Honorifics) [MTBB] [jpn, ASS]
Additional Info
General
Unique ID                                : 138590436271057900708396364743524373909 (0x68438C10302D04D8524C842367525595)
Complete name                            : [LostYears] Sword Art Online - Alicization - War of Underworld - 03v2 (S04E03) (WEB 1080p Hi10P AAC) [8C207C6B].mkv
Format                                   : Matroska
Format version                           : Version 4
File size                                : 661 MiB
Duration                                 : 23 min 40 s
Overall bit rate                         : 3 904 kb/s
Encoded date                             : UTC 2020-02-08 03:34:09
Writing application                      : mkvmerge v43.0.0 ('The Quartermaster') 64-bit
Writing library                          : libebml v1.3.10 + libmatroska v1.5.2
Attachments                              : BELLGOTHIC-BOLD.TTF / FUTURA.OTF / GandhiSans-Bold.otf / GandhiSans-BoldItalic.otf / HelveticaNeue LT 55 Roman.TTF / QUADRAAT-BOLD.OTF

Video
ID                                       : 1
Format                                   : AVC
Format/Info                              : Advanced Video Codec
Format profile                           : High 10@L5.1
Format settings                          : CABAC / 16 Ref Frames
Format settings, CABAC                   : Yes
Format settings, ReFrames                : 16 frames
Codec ID                                 : V_MPEG4/ISO/AVC
Duration                                 : 23 min 40 s
Bit rate                                 : 3 636 kb/s
Width                                    : 1 920 pixels
Height                                   : 1 080 pixels
Display aspect ratio                     : 16:9
Frame rate mode                          : Constant
Frame rate                               : 23.976 (24000/1001) FPS
Color space                              : YUV
Chroma subsampling                       : 4:2:0
Bit depth                                : 10 bits
Scan type                                : Progressive
Bits/(Pixel*Frame)                       : 0.073
Stream size                              : 615 MiB (93%)
Title                                    : 1080p Hi10P WEB x264 [MTBB]
Writing library                          : x264 core 152 r2851 ba24899
Encoding settings                        : cabac=1 / ref=16 / deblock=1:0:0 / analyse=0x3:0x133 / me=umh / subme=10 / psy=1 / psy_rd=1.00:0.00 / mixed_ref=1 / me_range=24 / chroma_me=1 / trellis=2 / 8x8dct=1 / cqm=0 / deadzone=21,11 / fast_pskip=1 / chroma_qp_offset=-2 / threads=6 / lookahead_threads=1 / sliced_threads=0 / nr=0 / decimate=1 / interlaced=0 / bluray_compat=0 / constrained_intra=0 / bframes=8 / b_pyramid=2 / b_adapt=2 / b_bias=0 / direct=3 / weightb=1 / open_gop=0 / weightp=2 / keyint=250 / keyint_min=23 / scenecut=40 / intra_refresh=0 / rc_lookahead=60 / rc=crf / mbtree=1 / crf=17.0 / qcomp=0.60 / qpmin=0 / qpmax=81 / qpstep=4 / ip_ratio=1.40 / aq=1:1.00
Language                                 : Japanese
Default                                  : Yes
Forced                                   : No
Color range                              : Limited
Matrix coefficients                      : BT.709

Audio #1
ID                                       : 2
Format                                   : AAC LC
Format/Info                              : Advanced Audio Codec Low Complexity
Codec ID                                 : A_AAC-2
Duration                                 : 23 min 40 s
Bit rate                                 : 132 kb/s
Channel(s)                               : 2 channels
Channel layout                           : L R
Sampling rate                            : 44.1 kHz
Frame rate                               : 43.066 FPS (1024 SPF)
Compression mode                         : Lossy
Delay relative to video                  : 22 ms
Stream size                              : 22.8 MiB (3%)
Title                                    : AAC 2.0 [KaiDubs]
Language                                 : English
Default                                  : Yes
Forced                                   : No

Audio #2
ID                                       : 3
Format                                   : AAC LC
Format/Info                              : Advanced Audio Codec Low Complexity
Codec ID                                 : A_AAC-2
Duration                                 : 23 min 40 s
Bit rate                                 : 128 kb/s
Channel(s)                               : 2 channels
Channel layout                           : L R
Sampling rate                            : 44.1 kHz
Frame rate                               : 43.066 FPS (1024 SPF)
Compression mode                         : Lossy
Stream size                              : 21.7 MiB (3%)
Title                                    : AAC 2.0 [MTBB]
Language                                 : Japanese
Default                                  : No
Forced                                   : No

Text #1
ID                                       : 4
Format                                   : ASS
Codec ID                                 : S_TEXT/ASS
Codec ID/Info                            : Advanced Sub Station Alpha
Duration                                 : 23 min 38 s
Bit rate                                 : 468 b/s
Count of elements                        : 417
Compression mode                         : Lossless
Stream size                              : 81.1 KiB (0%)
Title                                    : Signs/Songs [MTBB]
Language                                 : English
Default                                  : Yes
Forced                                   : Yes

Text #2
ID                                       : 5
Format                                   : ASS
Codec ID                                 : S_TEXT/ASS
Codec ID/Info                            : Advanced Sub Station Alpha
Duration                                 : 23 min 39 s
Bit rate                                 : 583 b/s
Count of elements                        : 724
Compression mode                         : Lossless
Stream size                              : 101 KiB (0%)
Title                                    : Subtitles [MTBB]
Language                                 : Japanese
Default                                  : No
Forced                                   : No

Text #3
ID                                       : 6
Format                                   : ASS
Codec ID                                 : S_TEXT/ASS
Codec ID/Info                            : Advanced Sub Station Alpha
Duration                                 : 23 min 39 s
Bit rate                                 : 583 b/s
Count of elements                        : 724
Compression mode                         : Lossless
Stream size                              : 101 KiB (0%)
Title                                    : Subtitles (Honorifics) [MTBB]
Language                                 : Japanese
Default                                  : No
Forced                                   : No

Menu
00:00:00.033                             : en:Intro
00:02:56.030                             : en:OP
00:04:26.010                             : en:Episode
00:23:34.970                             : en:Preview

Other Files in this Torrent
[LostYears] Sword Art Online - Alicization - War of Underworld - 03v2 (S04E03) (WEB 1080p Hi10P AAC) [8C207C6B].mkv
beta
Anime DDL+NZB mirror
Current Time: 02/12/2021 23:12



About/FAQs

Discord