[LostYears] Isekai Quartet - 01 (WEB 1080p x264 10-bit AAC) [13EE2746].mkv


File Size269.3 MB (282,419,719 bytes)
DownloadClickNUpload | Jheberg | MultiUp
  • BdUpload
  • DownAce
  • Fichier
  • FileCloud
  • Filerio
  • FilesCdn
  • IndiShare
  • Kbagi
  • Turbobit
  • UpToBox
  • Uppit
| Sendspace | SolidFiles | ZippyShare
HashesCRC32: 13EE2746, MD5: BBFCE593F744129CBD6F34BF5E78DE2B, SHA1: 1BF7AD284E7E750EACD583FB4EC704B9F49B9856, SHA256: 0BEC8F90E74259A200361705A119F0A90FF20AEA6D999526B5796ED3ACA85895, ED2K: B809290BA7555B9339F0E5D918205CD8
Screenshots
screenshotscreenshotscreenshotscreenshotscreenshot
SubtitlesAll Attachments | Signs & Songs [zxx, ASS], No Honorifics [eng, ASS], Honorifics [enm, ASS]
Additional Info
General
Unique ID                                : 270846977303283080278006376852056000619 (0xCBC33AFB11C9AE9B53844855BD2D486B)
Complete name                            : [LostYears] Isekai Quartet - 01 (WEB 1080p x264 10-bit AAC) [13EE2746].mkv
Format                                   : Matroska
Format version                           : Version 4
File size                                : 269 MiB
Duration                                 : 12 min 0 s
Overall bit rate                         : 3 138 kb/s
Movie name                               : [LostYears] Isekai Quartet - 01
Encoded date                             : UTC 2019-05-07 19:13:53
Writing application                      : mkvmerge v25.0.0 ('Prog Noir') 64-bit
Writing library                          : libebml v1.3.6 + libmatroska v1.4.9
Attachments                              : ITCKRIST.TTF / ERASBD.TTF / bahnschrift.ttf / ARLRDBD.TTF / BRLNSR.TTF / arial.ttf / MAGRA-BOLD.TTF / FantasticBoogaloo.ttf / OpenSans-Semibold.ttf / OpenSans-Semibold.ttf

Video
ID                                       : 1
Format                                   : AVC
Format/Info                              : Advanced Video Codec
Format profile                           : High 10@L4
Format settings                          : CABAC / 4 Ref Frames
Format settings, CABAC                   : Yes
Format settings, ReFrames                : 4 frames
Codec ID                                 : V_MPEG4/ISO/AVC
Duration                                 : 12 min 0 s
Bit rate                                 : 2 600 kb/s
Width                                    : 1 920 pixels
Height                                   : 1 080 pixels
Display aspect ratio                     : 16:9
Frame rate mode                          : Constant
Frame rate                               : 23.976 (24000/1001) FPS
Color space                              : YUV
Chroma subsampling                       : 4:2:0
Bit depth                                : 10 bits
Scan type                                : Progressive
Bits/(Pixel*Frame)                       : 0.052
Stream size                              : 223 MiB (83%)
Title                                    : WEB 1080p x264 10-bit [LostYears]
Writing library                          : x264 core 148 r2721kMod 72d53ab
Encoding settings                        : cabac=1 / ref=4 / deblock=1:-1:-1 / analyse=0x3:0x133 / me=umh / subme=10 / psy=1 / fade_compensate=0.00 / psy_rd=0.70:0.00 / mixed_ref=1 / me_range=24 / chroma_me=1 / trellis=2 / 8x8dct=1 / cqm=0 / deadzone=21,11 / fast_pskip=0 / chroma_qp_offset=-2 / threads=12 / lookahead_threads=2 / sliced_threads=0 / nr=0 / decimate=0 / interlaced=0 / bluray_compat=0 / constrained_intra=0 / fgo=0 / bframes=9 / b_pyramid=2 / b_adapt=2 / b_bias=0 / direct=3 / weightb=1 / open_gop=0 / weightp=2 / keyint=240 / keyint_min=23 / scenecut=40 / intra_refresh=0 / rc_lookahead=60 / rc=crf / mbtree=1 / crf=15.8000 / qcomp=0.80 / qpmin=0 / qpmax=79 / qpstep=4 / ip_ratio=1.10 / aq=3:0.80
Language                                 : Japanese
Default                                  : Yes
Forced                                   : No
Color range                              : Limited
Matrix coefficients                      : BT.709

Audio #1
ID                                       : 2
Format                                   : AAC LC
Format/Info                              : Advanced Audio Codec Low Complexity
Codec ID                                 : A_AAC-2
Duration                                 : 12 min 0 s
Bit rate                                 : 253 kb/s
Channel(s)                               : 2 channels
Channel layout                           : L R
Sampling rate                            : 48.0 kHz
Frame rate                               : 46.875 FPS (1024 SPF)
Compression mode                         : Lossy
Stream size                              : 21.7 MiB (8%)
Title                                    : English 2ch
Language                                 : English
Default                                  : Yes
Forced                                   : No

Audio #2
ID                                       : 3
Format                                   : AAC LC
Format/Info                              : Advanced Audio Codec Low Complexity
Codec ID                                 : A_AAC-2
Duration                                 : 12 min 0 s
Bit rate                                 : 253 kb/s
Channel(s)                               : 2 channels
Channel layout                           : L R
Sampling rate                            : 48.0 kHz
Frame rate                               : 46.875 FPS (1024 SPF)
Compression mode                         : Lossy
Stream size                              : 21.7 MiB (8%)
Title                                    : Japanese 2ch
Language                                 : Japanese
Default                                  : No
Forced                                   : No

Text #1
ID                                       : 4
Format                                   : ASS
Codec ID                                 : S_TEXT/ASS
Codec ID/Info                            : Advanced Sub Station Alpha
Duration                                 : 8 min 2 s
Bit rate                                 : 1 461 b/s
Count of elements                        : 505
Compression mode                         : Lossless
Stream size                              : 86.0 KiB (0%)
Title                                    : Signs & Songs
Language                                 : zxx
Default                                  : Yes
Forced                                   : Yes

Text #2
ID                                       : 5
Format                                   : ASS
Codec ID                                 : S_TEXT/ASS
Codec ID/Info                            : Advanced Sub Station Alpha
Duration                                 : 11 min 41 s
Bit rate                                 : 1 144 b/s
Count of elements                        : 700
Compression mode                         : Lossless
Stream size                              : 98.1 KiB (0%)
Title                                    : No Honorifics
Language                                 : English
Default                                  : No
Forced                                   : No

Text #3
ID                                       : 6
Format                                   : ASS
Codec ID                                 : S_TEXT/ASS
Codec ID/Info                            : Advanced Sub Station Alpha
Duration                                 : 11 min 41 s
Bit rate                                 : 1 145 b/s
Count of elements                        : 700
Compression mode                         : Lossless
Stream size                              : 98.1 KiB (0%)
Title                                    : Honorifics
Language                                 : enm
Default                                  : No
Forced                                   : No

Menu
00:00:00.033                             : en:Intro
00:03:57.920                             : en:OP
00:03:58.170                             : en:OP
00:05:26.970                             : en:Episode
00:10:42.030                             : en:ED

Other Files in this Torrent
[LostYears] Isekai Quartet - 01 (WEB 1080p x264 10-bit AAC) [13EE2746].mkv
beta
Anime DDL+NZB mirror
Current Time: 13/04/2024 22:22



About/FAQs

Discord