File Size256.8 MB (269,235,071 bytes)
DownloadAnonFiles | EmbedUpload | FileWinds | MirrorStack | MultiUpload | Sendspace
ShareBeast: Part1, Part2
HashesCRC32: B3D98D5B, MD5: F280B28F4C93609028BF9DA6CBFEEBBF, SHA1: E6A4C768CDC583898485346AFBA57923405A796B, SHA256: C19569E4416FB4AE0592192580A3AEE9F0540079D334CD4D2707B1537E14CEF5, ED2K: 177412DB9DAECCBE21A3316399159AC1
Screenshots
screenshotscreenshotscreenshotscreenshotscreenshot
Additional Info
General
Complete name                            : Lagrange - The Flower of Rin-ne - S01E02v2 Kamogawa Spirit.mp4
Format                                   : MPEG-4
Format profile                           : Base Media
Codec ID                                 : isom
File size                                : 257 MiB
Duration                                 : 24mn 4s
Overall bit rate mode                    : Variable
Overall bit rate                         : 1 491 Kbps
Movie name                               : Kamogawa Spirit
Album                                    : Lagrange - The Flower of Rin-ne -, Season 1
Part/Position                            : 1
Part/Total                               : 1
Track name/Position                      : 2
Track name/Total                         : 2
Performer                                : Lagrange - The Flower of Rin-ne -
Composer                                 : Lagrange - The Flower of Rin-ne -
Genre                                    : Animation
Recorded date                            : 2012
Tagged date                              : UTC 2013-04-07 14:39:16
Cover                                    : Yes / Yes

Video
ID                                       : 1
Format                                   : AVC
Format/Info                              : Advanced Video Codec
Format profile                           : Main@L3.0
Format settings, CABAC                   : Yes
Format settings, ReFrames                : 3 frames
Codec ID                                 : avc1
Codec ID/Info                            : Advanced Video Coding
Duration                                 : 24mn 4s
Bit rate                                 : 1 334 Kbps
Width                                    : 852 pixels
Height                                   : 480 pixels
Display aspect ratio                     : 16:9
Frame rate mode                          : Constant
Frame rate                               : 23.976 fps
Color space                              : YUV
Chroma subsampling                       : 4:2:0
Bit depth                                : 8 bits
Scan type                                : Progressive
Bits/(Pixel*Frame)                       : 0.136
Stream size                              : 238 MiB (93%)
Writing library                          : x264 core 120
Encoding settings                        : cabac=1 / ref=3 / deblock=1:0:0 / analyse=0x1:0x111 / me=hex / subme=7 / psy=1 / psy_rd=1.00:0.00 / mixed_ref=1 / me_range=16 / chroma_me=1 / trellis=1 / 8x8dct=0 / cqm=0 / deadzone=21,11 / fast_pskip=1 / chroma_qp_offset=-2 / threads=6 / sliced_threads=0 / nr=0 / decimate=1 / interlaced=0 / bluray_compat=0 / constrained_intra=0 / bframes=3 / b_pyramid=1 / b_adapt=1 / b_bias=0 / direct=1 / weightb=1 / open_gop=0 / weightp=2 / keyint=250 / keyint_min=25 / scenecut=40 / intra_refresh=0 / rc_lookahead=40 / rc=abr / mbtree=1 / bitrate=1334 / ratetol=1.0 / qcomp=0.60 / qpmin=10 / qpmax=51 / qpstep=4 / ip_ratio=1.40 / aq=1:1.00

Audio
ID                                       : 2
Format                                   : AAC
Format/Info                              : Advanced Audio Codec
Format profile                           : LC
Codec ID                                 : 40
Duration                                 : 24mn 4s
Bit rate mode                            : Variable
Bit rate                                 : 104 Kbps
Maximum bit rate                         : 164 Kbps
Channel(s)                               : 2 channels
Channel positions                        : Front: L R
Sampling rate                            : 44.1 KHz
Compression mode                         : Lossy
Delay relative to video                  : 924ms
Stream size                              : 17.9 MiB (7%)
Language                                 : English

Other Files in this Torrent
Lagrange - The Flower of Rin-ne - S01E02v2 Kamogawa Spirit.mp4
beta
Anime DDL+NZB mirror
Current Time: 27/10/2021 03:59



About/FAQs

Discord