File Size254.8 MB (267,149,360 bytes)
DownloadAnonFiles | EmbedUpload | FileWinds | MirrorStack | MultiUpload | Sendspace
ShareBeast: Part1, Part2
HashesCRC32: 72308749, MD5: C6F377959056AC7D98257ECA8EA96B22, SHA1: D08B7F3C7D949C5D3D1F58536FC142502E3F611B, SHA256: 2F192ECEE7C84C3030574C12E9759075976172B143BFBAAE61E5726F14078C7D, ED2K: 1ABE6D502E682C5B93BAC032D9BB08FA
Screenshots
screenshotscreenshotscreenshotscreenshotscreenshot
Additional Info
General
Complete name                            : Lagrange - The Flower of Rin-ne - S01E10v2 Goodbye, Kamogawa.mp4
Format                                   : MPEG-4
Format profile                           : Base Media
Codec ID                                 : isom
File size                                : 255 MiB
Duration                                 : 24mn 4s
Overall bit rate mode                    : Variable
Overall bit rate                         : 1 480 Kbps
Movie name                               : Goodbye, Kamogawa
Album                                    : Lagrange - The Flower of Rin-ne -, Season 1
Part/Position                            : 1
Part/Total                               : 1
Track name/Position                      : 10
Track name/Total                         : 10
Performer                                : Lagrange - The Flower of Rin-ne -
Composer                                 : Lagrange - The Flower of Rin-ne -
Genre                                    : Animation
Recorded date                            : 2012
Tagged date                              : UTC 2013-04-10 14:58:57
Cover                                    : Yes / Yes

Video
ID                                       : 1
Format                                   : AVC
Format/Info                              : Advanced Video Codec
Format profile                           : Main@L3.0
Format settings, CABAC                   : Yes
Format settings, ReFrames                : 3 frames
Codec ID                                 : avc1
Codec ID/Info                            : Advanced Video Coding
Duration                                 : 24mn 4s
Bit rate                                 : 1 299 Kbps
Width                                    : 852 pixels
Height                                   : 480 pixels
Display aspect ratio                     : 16:9
Frame rate mode                          : Constant
Frame rate                               : 23.976 fps
Color space                              : YUV
Chroma subsampling                       : 4:2:0
Bit depth                                : 8 bits
Scan type                                : Progressive
Bits/(Pixel*Frame)                       : 0.132
Stream size                              : 232 MiB (91%)
Writing library                          : x264 core 120
Encoding settings                        : cabac=1 / ref=3 / deblock=1:0:0 / analyse=0x1:0x111 / me=hex / subme=7 / psy=1 / psy_rd=1.00:0.00 / mixed_ref=1 / me_range=16 / chroma_me=1 / trellis=1 / 8x8dct=0 / cqm=0 / deadzone=21,11 / fast_pskip=1 / chroma_qp_offset=-2 / threads=6 / sliced_threads=0 / nr=0 / decimate=1 / interlaced=0 / bluray_compat=0 / constrained_intra=0 / bframes=3 / b_pyramid=1 / b_adapt=1 / b_bias=0 / direct=1 / weightb=1 / open_gop=0 / weightp=2 / keyint=250 / keyint_min=25 / scenecut=40 / intra_refresh=0 / rc_lookahead=40 / rc=abr / mbtree=1 / bitrate=1299 / ratetol=1.0 / qcomp=0.60 / qpmin=10 / qpmax=51 / qpstep=4 / ip_ratio=1.40 / aq=1:1.00

Audio
ID                                       : 2
Format                                   : AAC
Format/Info                              : Advanced Audio Codec
Format profile                           : LC
Codec ID                                 : 40
Duration                                 : 24mn 4s
Bit rate mode                            : Variable
Bit rate                                 : 125 Kbps
Maximum bit rate                         : 166 Kbps
Channel(s)                               : 2 channels
Channel positions                        : Front: L R
Sampling rate                            : 44.1 KHz
Compression mode                         : Lossy
Delay relative to video                  : 924ms
Stream size                              : 21.5 MiB (8%)
Language                                 : English

Other Files in this Torrent
Lagrange - The Flower of Rin-ne - S01E10v2 Goodbye, Kamogawa.mp4
beta
Anime DDL+NZB mirror
Current Time: 27/10/2021 04:01



About/FAQs

Discord