Lagrange - The Flower of Rin-ne - S01E06v2 The Wind, Fire, and Water Above Kamogawa.mp4


File Size258.1 MB (270,645,076 bytes)
DownloadAnonFiles | EmbedUpload | FileWinds | MirrorStack | MultiUpload | Sendspace
ShareBeast: Part1, Part2
HashesCRC32: 92126957, MD5: 0D5381268630C5B269C7EAECA7DD65A9, SHA1: 1D3F87C4AA3E7B389F5F84B521D63A31018C2998, SHA256: 0A6147716201BE710E9A8813F9D9ED7E2BF589AD9367F38FF8D1E5F4647656A1, ED2K: D36DEC49011088F7695723C227495E91
Screenshots
screenshotscreenshotscreenshotscreenshotscreenshot
Additional Info
General
Complete name                            : Lagrange - The Flower of Rin-ne - S01E06v2 The Wind, Fire, and Water Above Kamogawa.mp4
Format                                   : MPEG-4
Format profile                           : Base Media
Codec ID                                 : isom
File size                                : 258 MiB
Duration                                 : 24mn 5s
Overall bit rate mode                    : Variable
Overall bit rate                         : 1 498 Kbps
Movie name                               : The Wind, Fire, and Water Above Kamogawa
Album                                    : Lagrange - The Flower of Rin-ne -, Season 1
Part/Position                            : 1
Part/Total                               : 1
Track name/Position                      : 6
Track name/Total                         : 6
Performer                                : Lagrange - The Flower of Rin-ne -
Composer                                 : Lagrange - The Flower of Rin-ne -
Genre                                    : Animation
Recorded date                            : 2012
Tagged date                              : UTC 2013-04-10 12:00:34
Cover                                    : Yes / Yes

Video
ID                                       : 1
Format                                   : AVC
Format/Info                              : Advanced Video Codec
Format profile                           : Main@L3.0
Format settings, CABAC                   : Yes
Format settings, ReFrames                : 3 frames
Codec ID                                 : avc1
Codec ID/Info                            : Advanced Video Coding
Duration                                 : 24mn 4s
Bit rate                                 : 1 336 Kbps
Width                                    : 848 pixels
Height                                   : 480 pixels
Display aspect ratio                     : 16:9
Frame rate mode                          : Constant
Frame rate                               : 23.976 fps
Color space                              : YUV
Chroma subsampling                       : 4:2:0
Bit depth                                : 8 bits
Scan type                                : Progressive
Bits/(Pixel*Frame)                       : 0.137
Stream size                              : 235 MiB (91%)
Writing library                          : x264 core 120
Encoding settings                        : cabac=1 / ref=3 / deblock=1:0:0 / analyse=0x1:0x111 / me=hex / subme=7 / psy=1 / psy_rd=1.00:0.00 / mixed_ref=1 / me_range=16 / chroma_me=1 / trellis=1 / 8x8dct=0 / cqm=0 / deadzone=21,11 / fast_pskip=1 / chroma_qp_offset=-2 / threads=6 / sliced_threads=0 / nr=0 / decimate=1 / interlaced=0 / bluray_compat=0 / constrained_intra=0 / bframes=3 / b_pyramid=1 / b_adapt=1 / b_bias=0 / direct=1 / weightb=1 / open_gop=0 / weightp=2 / keyint=250 / keyint_min=25 / scenecut=40 / intra_refresh=0 / rc_lookahead=40 / rc=abr / mbtree=1 / bitrate=1336 / ratetol=1.0 / qcomp=0.60 / qpmin=10 / qpmax=51 / qpstep=4 / ip_ratio=1.40 / aq=1:1.00

Audio
ID                                       : 2
Format                                   : AAC
Format/Info                              : Advanced Audio Codec
Format profile                           : LC
Codec ID                                 : 40
Duration                                 : 24mn 5s
Bit rate mode                            : Variable
Bit rate                                 : 124 Kbps
Maximum bit rate                         : 168 Kbps
Channel(s)                               : 2 channels
Channel positions                        : Front: L R
Sampling rate                            : 44.1 KHz
Compression mode                         : Lossy
Delay relative to video                  : 924ms
Stream size                              : 21.4 MiB (8%)
Language                                 : English

Other Files in this Torrent
Lagrange - The Flower of Rin-ne - S01E06v2 The Wind, Fire, and Water Above Kamogawa.mp4
beta
Anime DDL+NZB mirror
Current Time: 27/10/2021 03:30



About/FAQs

Discord