[KitchenSubs] Devidol - 01 [720p].mkv


File Size203.4 MB (213,326,114 bytes)
DownloadAnonFiles | ClickNUpload | DownloadGG | KrakenFiles | MultiUp
  • BdUpload
  • DownAce
  • Fichier
  • FileCloud
  • Filerio
  • FilesCdn
  • IndiShare
  • Kbagi
  • Turbobit
  • UpToBox
  • Uppit
| ZippyShare
HashesCRC32: 9C0F2301, MD5: B942EAFE935DA3D4DD18FCC9E72AE579, SHA1: D8C8C904787023CFA8A50AC37B2896A523C333C1, SHA256: B6A568780F058EF1041F1F0D34CAF8A12AA9CE8D2202F5DD18FF241F3DB9A748, ED2K: 100537C824B3F8EC7D2E534FE58683D6
Screenshots
screenshotscreenshotscreenshotscreenshotscreenshot
SubtitlesAll Attachments | [KitchenSubs] English [eng, ASS]
Additional Info
General
Unique ID                                : 287385803812033614902115313007027410335 (0xD8347E157C3A338FC56AE0B7C4F1D59F)
Complete name                            : [KitchenSubs] Devidol - 01 [720p].mkv
Format                                   : Matroska
Format version                           : Version 4
File size                                : 203 MiB
Duration                                 : 13 min 59 s
Overall bit rate                         : 2 032 kb/s
Encoded date                             : UTC 2018-10-31 13:31:26
Writing application                      : mkvmerge v28.2.0 ('The Awakening') 64-bit
Writing library                          : libebml v1.3.6 + libmatroska v1.4.9
Attachments                              : arial_0.ttf / arialbd_0.ttf / Arrr Matey BB_0.ttf / Boopee_0.ttf / dnk_0.ttf / FRABK_0.TTF / FRABKIT_0.TTF / Trickster-Reg_0.ttf / Wolf's Bane_0.ttf

Video
ID                                       : 1
Format                                   : AVC
Format/Info                              : Advanced Video Codec
Format profile                           : High@L5
Format settings                          : CABAC / 16 Ref Frames
Format settings, CABAC                   : Yes
Format settings, Reference frames        : 16 frames
Codec ID                                 : V_MPEG4/ISO/AVC
Duration                                 : 13 min 59 s
Bit rate                                 : 1 801 kb/s
Width                                    : 1 280 pixels
Height                                   : 720 pixels
Display aspect ratio                     : 16:9
Frame rate mode                          : Constant
Frame rate                               : 23.976 (24000/1001) FPS
Color space                              : YUV
Chroma subsampling                       : 4:2:0
Bit depth                                : 8 bits
Scan type                                : Progressive
Bits/(Pixel*Frame)                       : 0.081
Stream size                              : 180 MiB (89%)
Writing library                          : x264 core 130 r2274 c832fe9
Encoding settings                        : cabac=1 / ref=16 / deblock=1:1:1 / analyse=0x3:0x133 / me=umh / subme=10 / psy=1 / psy_rd=0.40:0.00 / mixed_ref=1 / me_range=24 / chroma_me=1 / trellis=2 / 8x8dct=1 / cqm=0 / deadzone=21,11 / fast_pskip=1 / chroma_qp_offset=-2 / threads=6 / lookahead_threads=1 / sliced_threads=0 / nr=0 / decimate=1 / interlaced=0 / bluray_compat=0 / constrained_intra=0 / bframes=10 / b_pyramid=2 / b_adapt=2 / b_bias=0 / direct=3 / weightb=1 / open_gop=0 / weightp=2 / keyint=250 / keyint_min=23 / scenecut=40 / intra_refresh=0 / rc_lookahead=60 / rc=crf / mbtree=1 / crf=20.0 / qcomp=0.60 / qpmin=0 / qpmax=69 / qpstep=4 / ip_ratio=1.40 / aq=1:0.60
Default                                  : Yes
Forced                                   : No

Audio
ID                                       : 2
Format                                   : AAC LC
Format/Info                              : Advanced Audio Codec Low Complexity
Codec ID                                 : A_AAC-2
Duration                                 : 13 min 59 s
Bit rate                                 : 192 kb/s
Channel(s)                               : 2 channels
Channel layout                           : L R
Sampling rate                            : 48.0 kHz
Frame rate                               : 46.875 FPS (1024 SPF)
Compression mode                         : Lossy
Stream size                              : 19.2 MiB (9%)
Language                                 : Japanese
Default                                  : Yes
Forced                                   : No

Text
ID                                       : 3
Format                                   : ASS
Codec ID                                 : S_TEXT/ASS
Codec ID/Info                            : Advanced Sub Station Alpha
Duration                                 : 13 min 57 s
Bit rate                                 : 10.6 kb/s
Count of elements                        : 5988
Compression mode                         : Lossless
Stream size                              : 1.05 MiB (1%)
Title                                    : [KitchenSubs]  English
Language                                 : English
Default                                  : Yes
Forced                                   : No

Other Files in this Torrent
[KitchenSubs] Devidol - 01 [720p].mkv
beta
Anime DDL+NZB mirror
Current Time: 01/07/2022 14:21



About/FAQs

Discord