File Size207.2 MB (217,269,123 bytes)
DownloadAnonFiles | ClickNUpload | DownloadGG | KrakenFiles | MultiUp
  • BdUpload
  • DownAce
  • Fichier
  • FileCloud
  • Filerio
  • FilesCdn
  • IndiShare
  • Kbagi
  • Turbobit
  • UpToBox
  • Uppit
| ZippyShare
HashesCRC32: C6E05484, MD5: 302C7E7D472782FF6F449F99D1D6A3E0, SHA1: 32CAA837B7C73AA415FCA118390495243BF17A02, SHA256: C75E39EB88A514D14AA1B01120CA17695010FC62A24383F4BF5B015266EA975F, ED2K: 29614C24BB7ED2393E621759752E91A4
Screenshots
screenshotscreenshotscreenshotscreenshotscreenshot
Additional Info
General
Complete name                            : Devidol EP5 Eng Subs.mp4
Format                                   : MPEG-4
Format profile                           : Base Media
Codec ID                                 : isom (isom/avc1)
File size                                : 207 MiB
Duration                                 : 14 min 0 s
Overall bit rate mode                    : Variable
Overall bit rate                         : 2 069 kb/s
Encoded date                             : UTC 2018-11-22 15:42:14
Tagged date                              : UTC 2018-11-22 15:42:14

Video
ID                                       : 1
Format                                   : AVC
Format/Info                              : Advanced Video Codec
Format profile                           : Main@L4.1
Format settings                          : CABAC / 4 Ref Frames
Format settings, CABAC                   : Yes
Format settings, Reference frames        : 4 frames
Codec ID                                 : avc1
Codec ID/Info                            : Advanced Video Coding
Duration                                 : 14 min 0 s
Bit rate                                 : 1 866 kb/s
Maximum bit rate                         : 25.9 Mb/s
Width                                    : 1 280 pixels
Height                                   : 720 pixels
Display aspect ratio                     : 16:9
Frame rate mode                          : Constant
Frame rate                               : 23.976 (24000/1001) FPS
Color space                              : YUV
Chroma subsampling                       : 4:2:0
Bit depth                                : 8 bits
Scan type                                : Progressive
Bits/(Pixel*Frame)                       : 0.084
Stream size                              : 187 MiB (90%)
Writing library                          : x264 core 157 r2935 545de2f
Encoding settings                        : cabac=1 / ref=3 / deblock=1:0:0 / analyse=0x1:0x111 / me=hex / subme=7 / psy=1 / psy_rd=1.00:0.00 / mixed_ref=1 / me_range=16 / chroma_me=1 / trellis=1 / 8x8dct=0 / cqm=0 / deadzone=21,11 / fast_pskip=1 / chroma_qp_offset=-2 / threads=22 / lookahead_threads=3 / sliced_threads=0 / nr=0 / decimate=1 / interlaced=0 / bluray_compat=0 / constrained_intra=0 / bframes=3 / b_pyramid=2 / b_adapt=1 / b_bias=0 / direct=1 / weightb=1 / open_gop=0 / weightp=2 / keyint=240 / keyint_min=1 / scenecut=40 / intra_refresh=0 / rc_lookahead=40 / rc=crf / mbtree=1 / crf=20.0 / qcomp=0.60 / qpmin=0 / qpmax=69 / qpstep=4 / ip_ratio=1.40 / aq=1:1.50
Encoded date                             : UTC 2018-11-22 15:42:14
Tagged date                              : UTC 2018-11-22 15:42:16
Color range                              : Limited
Color primaries                          : BT.709
Transfer characteristics                 : BT.709
Matrix coefficients                      : BT.709
Codec configuration box                  : avcC

Audio
ID                                       : 2
Format                                   : AAC LC
Format/Info                              : Advanced Audio Codec Low Complexity
Codec ID                                 : mp4a-40-2
Duration                                 : 14 min 0 s
Bit rate mode                            : Variable
Bit rate                                 : 199 kb/s
Maximum bit rate                         : 251 kb/s
Channel(s)                               : 2 channels
Channel layout                           : L R
Sampling rate                            : 48.0 kHz
Frame rate                               : 46.875 FPS (1024 SPF)
Compression mode                         : Lossy
Stream size                              : 20.0 MiB (10%)
Language                                 : Japanese
Encoded date                             : UTC 2018-11-22 15:34:04
Tagged date                              : UTC 2018-11-22 15:42:16

Other Files in this Torrent
Devidol EP5 Eng Subs.mp4
beta
Anime DDL+NZB mirror
Current Time: 01/07/2022 14:49



About/FAQs

Discord