[KH] One Punch Man S2 - OVA - 05 - Puri Puri Prisoner and the Escaped Prisoners.mkv


File Size627.5 MB (657,938,222 bytes)
DownloadClickNUpload | DownloadGG | DropAPK
MultiUp: Part1
  • BdUpload
  • DownAce
  • Fichier
  • FileCloud
  • Filerio
  • FilesCdn
  • IndiShare
  • Kbagi
  • Turbobit
  • UpToBox
  • Uppit
, Part2
  • BdUpload
  • DownAce
  • Fichier
  • FileCloud
  • Filerio
  • FilesCdn
  • IndiShare
  • Kbagi
  • Turbobit
  • UpToBox
  • Uppit

SolidFiles: Part1, Part2
ZippyShare: Part1, Part2
HashesCRC32: 4260E217, MD5: 2D2A8325E22DE48EFA0202C9C4BE312E, SHA1: 4A8B1D514AD2C59C8B137ECF9B662944C8B1CF84, SHA256: D9199C3F4A3FF5E2034574AD025F9667E5EF667D443845A2986DC3B9738AE197, ED2K: DF5D0EB61DA19BF1B736B19333019E74
Screenshots
screenshotscreenshotscreenshotscreenshotscreenshot
SubtitlesAll Attachments | Signs / Songs [eng, ASS], Full Subs [GJM] [jpn, ASS]
Additional Info
General
Unique ID                                : 206585339378290951712396783133339976194 (0x9B6AE39D3CD1D1A02E5DEAEB98188202)
Complete name                            : [KH] One Punch Man S2 - OVA - 05 - Puri Puri Prisoner and the Escaped Prisoners.mkv
Format                                   : Matroska
Format version                           : Version 4
File size                                : 627 MiB
Duration                                 : 12 min 0 s
Overall bit rate mode                    : Variable
Overall bit rate                         : 7 301 kb/s
Encoded date                             : UTC 2021-07-20 19:33:48
Writing application                      : mkvmerge v44.0.0 ('Domino') 64-bit
Writing library                          : libebml v1.3.10 + libmatroska v1.5.2
Attachments                              : GANDHISANS-BOLDITALIC.OTF / KLEINKARPETS.TTF / TOXIA.TTF / XANGDASHINY.TTF / ALBATROSS.TTF / CITYBURN.TTF / ENCODESANSCONDENSED-BOLD.TTF / ENCODESANSSEMICONDENSED-EXTRABOLD.TTF / GANDHISANS-BOLD.OTF

Video
ID                                       : 1
Format                                   : AVC
Format/Info                              : Advanced Video Codec
Format profile                           : High 10@L5.1
Format settings                          : CABAC / 16 Ref Frames
Format settings, CABAC                   : Yes
Format settings, ReFrames                : 16 frames
Codec ID                                 : V_MPEG4/ISO/AVC
Duration                                 : 12 min 0 s
Bit rate                                 : 5 788 kb/s
Width                                    : 1 920 pixels
Height                                   : 1 080 pixels
Display aspect ratio                     : 16:9
Frame rate mode                          : Constant
Frame rate                               : 23.976 (24000/1001) FPS
Color space                              : YUV
Chroma subsampling                       : 4:2:0
Bit depth                                : 10 bits
Scan type                                : Progressive
Bits/(Pixel*Frame)                       : 0.116
Stream size                              : 497 MiB (79%)
Writing library                          : x264 core 155 r2893 b00bcaf
Encoding settings                        : cabac=1 / ref=16 / deblock=1:-2:-2 / analyse=0x3:0x113 / me=umh / subme=10 / psy=1 / psy_rd=0.80:0.00 / mixed_ref=1 / me_range=32 / chroma_me=1 / trellis=2 / 8x8dct=1 / cqm=0 / deadzone=21,11 / fast_pskip=0 / chroma_qp_offset=-2 / threads=24 / lookahead_threads=6 / sliced_threads=0 / nr=0 / decimate=0 / interlaced=0 / bluray_compat=0 / constrained_intra=0 / bframes=16 / b_pyramid=2 / b_adapt=2 / b_bias=0 / direct=3 / weightb=1 / open_gop=0 / weightp=2 / keyint=240 / keyint_min=23 / scenecut=40 / intra_refresh=0 / rc_lookahead=48 / rc=crf / mbtree=1 / crf=16.0 / qcomp=0.70 / qpmin=0 / qpmax=81 / qpstep=4 / ip_ratio=1.40 / aq=3:0.90
Language                                 : Japanese
Default                                  : Yes
Forced                                   : No
Color range                              : Limited
Matrix coefficients                      : BT.709

Audio #1
ID                                       : 2
Format                                   : FLAC
Format/Info                              : Free Lossless Audio Codec
Codec ID                                 : A_FLAC
Duration                                 : 12 min 0 s
Bit rate mode                            : Variable
Bit rate                                 : 741 kb/s
Channel(s)                               : 2 channels
Channel layout                           : L R
Sampling rate                            : 48.0 kHz
Frame rate                               : 10.418 FPS (4607 SPF)
Bit depth                                : 16 bits
Compression mode                         : Lossless
Stream size                              : 63.7 MiB (10%)
Writing library                          : Lavf59.2.101
Language                                 : English
Default                                  : Yes
Forced                                   : No

Audio #2
ID                                       : 3
Format                                   : FLAC
Format/Info                              : Free Lossless Audio Codec
Codec ID                                 : A_FLAC
Duration                                 : 12 min 0 s
Bit rate mode                            : Variable
Bit rate                                 : 743 kb/s
Channel(s)                               : 2 channels
Channel layout                           : L R
Sampling rate                            : 48.0 kHz
Frame rate                               : 10.418 FPS (4607 SPF)
Bit depth                                : 16 bits
Compression mode                         : Lossless
Stream size                              : 63.9 MiB (10%)
Writing library                          : Lavf59.2.101
Language                                 : Japanese
Default                                  : No
Forced                                   : No

Text #1
ID                                       : 4
Format                                   : ASS
Codec ID                                 : S_TEXT/ASS
Codec ID/Info                            : Advanced Sub Station Alpha
Duration                                 : 11 min 48 s
Bit rate                                 : 592 b/s
Count of elements                        : 270
Compression mode                         : Lossless
Stream size                              : 51.3 KiB (0%)
Title                                    : Signs / Songs
Language                                 : English
Default                                  : Yes
Forced                                   : No

Text #2
ID                                       : 5
Format                                   : ASS
Codec ID                                 : S_TEXT/ASS
Codec ID/Info                            : Advanced Sub Station Alpha
Duration                                 : 11 min 48 s
Bit rate                                 : 707 b/s
Count of elements                        : 443
Compression mode                         : Lossless
Stream size                              : 61.2 KiB (0%)
Title                                    : Full Subs [GJM]
Language                                 : Japanese
Default                                  : No
Forced                                   : No

Menu
00:00:00.000                             : Main Episode
00:10:30.088                             : ED

Other Files in this Torrent
[KH] One Punch Man S2 - OVA - 05 - Puri Puri Prisoner and the Escaped Prisoners.mkv
beta
Anime DDL+NZB mirror
Current Time: 17/06/2024 23:05



About/FAQs

Discord