File Size974.8 MB (1,022,133,884 bytes)
DownloadClickNUpload | DownloadGG | DropAPK
MultiUp: Part1
  • BdUpload
  • DownAce
  • Fichier
  • FileCloud
  • Filerio
  • FilesCdn
  • IndiShare
  • Kbagi
  • Turbobit
  • UpToBox
  • Uppit
, Part2
  • BdUpload
  • DownAce
  • Fichier
  • FileCloud
  • Filerio
  • FilesCdn
  • IndiShare
  • Kbagi
  • Turbobit
  • UpToBox
  • Uppit

SolidFiles: Part1, Part2
ZippyShare: Part1, Part2
HashesCRC32: 90D71724, MD5: C5558D2ADC9F8357C8573DCBD4D1C60D, SHA1: F6DBA45D26546572C30996B6ADEEF2DE6B743135, SHA256: E4C2C82F817B9D78DCC9219A0479B50BDCC85BF92CF3EC1B06268E6BCCF748F9, ED2K: 1E06578B2F4DCF03F337E69AD6A7D387
Screenshots
screenshotscreenshotscreenshotscreenshotscreenshot
SubtitlesAll Attachments | Signs / Songs [eng, ASS], Full Subs [GJM] [jpn, ASS]
Additional Info
General
Unique ID                                : 338074976922790809254857620117071847827 (0xFE56DF453F04CBF8EFD3EF42E123E193)
Complete name                            : [KH] One Punch Man S2 - OVA - 02 - Old Dudes and Fishing.mkv
Format                                   : Matroska
Format version                           : Version 4
File size                                : 975 MiB
Duration                                 : 12 min 0 s
Overall bit rate mode                    : Variable
Overall bit rate                         : 11.3 Mb/s
Encoded date                             : UTC 2021-07-20 19:09:03
Writing application                      : mkvmerge v44.0.0 ('Domino') 64-bit
Writing library                          : libebml v1.3.10 + libmatroska v1.5.2
Attachments                              : GANDHISANS-BOLDITALIC.OTF / XANGDASHINY.TTF / ALBATROSS.TTF / GANDHISANS-BOLD.OTF

Video
ID                                       : 1
Format                                   : AVC
Format/Info                              : Advanced Video Codec
Format profile                           : High 10@L5.1
Format settings                          : CABAC / 16 Ref Frames
Format settings, CABAC                   : Yes
Format settings, ReFrames                : 16 frames
Codec ID                                 : V_MPEG4/ISO/AVC
Duration                                 : 12 min 0 s
Bit rate                                 : 9 962 kb/s
Width                                    : 1 920 pixels
Height                                   : 1 080 pixels
Display aspect ratio                     : 16:9
Frame rate mode                          : Constant
Frame rate                               : 23.976 (24000/1001) FPS
Color space                              : YUV
Chroma subsampling                       : 4:2:0
Bit depth                                : 10 bits
Scan type                                : Progressive
Bits/(Pixel*Frame)                       : 0.200
Stream size                              : 855 MiB (88%)
Writing library                          : x264 core 155 r2893 b00bcaf
Encoding settings                        : cabac=1 / ref=16 / deblock=1:-2:-2 / analyse=0x3:0x113 / me=umh / subme=10 / psy=1 / psy_rd=0.80:0.00 / mixed_ref=1 / me_range=32 / chroma_me=1 / trellis=2 / 8x8dct=1 / cqm=0 / deadzone=21,11 / fast_pskip=0 / chroma_qp_offset=-2 / threads=24 / lookahead_threads=6 / sliced_threads=0 / nr=0 / decimate=0 / interlaced=0 / bluray_compat=0 / constrained_intra=0 / bframes=16 / b_pyramid=2 / b_adapt=2 / b_bias=0 / direct=3 / weightb=1 / open_gop=0 / weightp=2 / keyint=240 / keyint_min=23 / scenecut=40 / intra_refresh=0 / rc_lookahead=48 / rc=crf / mbtree=1 / crf=16.0 / qcomp=0.70 / qpmin=0 / qpmax=81 / qpstep=4 / ip_ratio=1.40 / aq=3:0.90
Language                                 : Japanese
Default                                  : Yes
Forced                                   : No
Color range                              : Limited
Matrix coefficients                      : BT.709

Audio #1
ID                                       : 2
Format                                   : FLAC
Format/Info                              : Free Lossless Audio Codec
Codec ID                                 : A_FLAC
Duration                                 : 12 min 0 s
Bit rate mode                            : Variable
Bit rate                                 : 695 kb/s
Channel(s)                               : 2 channels
Channel layout                           : L R
Sampling rate                            : 48.0 kHz
Frame rate                               : 10.418 FPS (4607 SPF)
Bit depth                                : 16 bits
Compression mode                         : Lossless
Stream size                              : 59.8 MiB (6%)
Writing library                          : Lavf59.2.101
Language                                 : English
Default                                  : Yes
Forced                                   : No

Audio #2
ID                                       : 3
Format                                   : FLAC
Format/Info                              : Free Lossless Audio Codec
Codec ID                                 : A_FLAC
Duration                                 : 12 min 0 s
Bit rate mode                            : Variable
Bit rate                                 : 687 kb/s
Channel(s)                               : 2 channels
Channel layout                           : L R
Sampling rate                            : 48.0 kHz
Frame rate                               : 10.418 FPS (4607 SPF)
Bit depth                                : 16 bits
Compression mode                         : Lossless
Stream size                              : 59.0 MiB (6%)
Writing library                          : Lavf59.2.101
Language                                 : Japanese
Default                                  : No
Forced                                   : No

Text #1
ID                                       : 4
Format                                   : ASS
Codec ID                                 : S_TEXT/ASS
Codec ID/Info                            : Advanced Sub Station Alpha
Duration                                 : 11 min 27 s
Bit rate                                 : 31 b/s
Count of elements                        : 28
Compression mode                         : Lossless
Stream size                              : 2.65 KiB (0%)
Title                                    : Signs / Songs
Language                                 : English
Default                                  : Yes
Forced                                   : No

Text #2
ID                                       : 5
Format                                   : ASS
Codec ID                                 : S_TEXT/ASS
Codec ID/Info                            : Advanced Sub Station Alpha
Duration                                 : 11 min 48 s
Bit rate                                 : 140 b/s
Count of elements                        : 194
Compression mode                         : Lossless
Stream size                              : 12.2 KiB (0%)
Title                                    : Full Subs [GJM]
Language                                 : Japanese
Default                                  : No
Forced                                   : No

Menu
00:00:00.000                             : en:Main Episode
00:10:30.130                             : en:ED

Other Files in this Torrent
[KH] One Punch Man S2 - OVA - 02 - Old Dudes and Fishing.mkv
beta
Anime DDL+NZB mirror
Current Time: 19/05/2024 18:29



About/FAQs

Discord