[Kametsu] One Punch Man - 10 (BD 1080p Hi10 FLAC) [E8C49B0D].mkv


File Size1.687 GB (1,811,720,888 bytes)
DownloadClickNUpload: Part1, Part2
Jheberg: Part1, Part2
MultiUp: Part1
  • ClickNupload
  • Fichier
  • Filerio
  • Free
  • Fufox
  • HugeFiles
  • Mightyupload
  • ToutBox
  • Turbobit
  • UpToBox
  • Uplea
  • UploadBaz
  • Uploadable
  • Uploaded
  • Uppit
  • Userscloud
, Part2
  • ClickNupload
  • Fichier
  • Filerio
  • Free
  • Fufox
  • HugeFiles
  • Mightyupload
  • ToutBox
  • Turbobit
  • UpToBox
  • Uplea
  • UploadBaz
  • Uploadable
  • Uploaded
  • Uppit
  • Userscloud

OpenLoad: Part1, Part2
Sendspace: Part1, Part2, Part3, Part4, Part5, Part6
SolidFiles: Part1, Part2, Part3, Part4
HashesCRC32: E8C49B0D, MD5: DB2C41453725E53408B65F1B201C5B99, SHA1: EF20A48C7ED504CB108230B03168DF08ECA90E22, SHA256: D0CEF783B2FF432FBC1CEBB4FF6D54887EACE0C6A8D26F888D20F51B28BD89B7, ED2K: C7D461F2DB07F09CE9DF7E4CCF544981
Screenshots
screenshotscreenshotscreenshotscreenshotscreenshot
SubtitlesAll Attachments | Signs & Songs [zxx, ASS], Full Subtitles (SallySubs) [eng, ASS]
Additional Info
General
Unique ID                                : 195595710503521874895739151048658042734 (0x93265D13EC27E4C4B043A1FAB07ABF6E)
Complete name                            : [Kametsu] One Punch Man - 10 (BD 1080p Hi10 FLAC) [E8C49B0D].mkv
Format                                   : Matroska
Format version                           : Version 4 / Version 2
File size                                : 1.69 GiB
Duration                                 : 24 min 21 s
Overall bit rate mode                    : Variable
Overall bit rate                         : 9 920 kb/s
Movie name                               : One Punch Man - 10
Encoded date                             : UTC 2017-04-26 22:37:09
Writing application                      : mkvmerge v9.2.0 ('Photograph') 64bit
Writing library                          : libebml v1.3.3 + libmatroska v1.4.4
Attachments                              : JennaSue.ttf / Kick ITC TT.ttf / LibbyHand.ttf / Rosario-Bold.ttf / Rosario-BoldItalic.ttf / SWZ721H.ttf / AdobeHeiti-Kami.ttf / Brush Strokes.ttf / DISTInkingFxd-Bold.otf / Franchise-Bold-hinted.ttf

Video
ID                                       : 1
Format                                   : AVC
Format/Info                              : Advanced Video Codec
Format profile                           : High 10@L5
Format settings, CABAC                   : Yes
Format settings, ReFrames                : 4 frames
Codec ID                                 : V_MPEG4/ISO/AVC
Duration                                 : 24 min 21 s
Bit rate                                 : 7 714 kb/s
Width                                    : 1 920 pixels
Height                                   : 1 080 pixels
Display aspect ratio                     : 16:9
Frame rate mode                          : Constant
Frame rate                               : 23.976 (24000/1001) FPS
Color space                              : YUV
Chroma subsampling                       : 4:2:0
Bit depth                                : 10 bits
Scan type                                : Progressive
Bits/(Pixel*Frame)                       : 0.155
Stream size                              : 1.31 GiB (78%)
Writing library                          : x264 core 148 (DJATOM's build)
Encoding settings                        : cabac=1 / ref=4 / deblock=1:1:-1 / analyse=0x3:0x113 / me=umh / subme=9 / psy=1 / fade_compensate=0.00 / psy_rd=1.00:0.00 / mixed_ref=1 / me_range=32 / chroma_me=1 / trellis=2 / 8x8dct=1 / cqm=0 / deadzone=21,11 / fast_pskip=1 / chroma_qp_offset=-2 / threads=12 / lookahead_threads=2 / sliced_threads=0 / nr=0 / decimate=1 / interlaced=0 / bluray_compat=0 / constrained_intra=0 / bframes=9 / b_pyramid=2 / b_adapt=2 / b_bias=0 / direct=1 / weightb=1 / open_gop=0 / weightp=2 / keyint=250 / keyint_min=23 / scenecut=40 / intra_refresh=0 / rc=crf / mbtree=0 / crf=15.0000 / qcomp=0.72 / qpmin=0 / qpmax=81 / qpstep=4 / ip_ratio=1.40 / pb_ratio=1.30 / aq=1:0.85
Language                                 : Japanese
Default                                  : Yes
Forced                                   : No
Color range                              : Limited
Color primaries                          : BT.709
Transfer characteristics                 : BT.709
Matrix coefficients                      : BT.709

Audio #1
ID                                       : 2
Format                                   : FLAC
Format/Info                              : Free Lossless Audio Codec
Codec ID                                 : A_FLAC
Duration                                 : 24 min 21 s
Bit rate mode                            : Variable
Bit rate                                 : 724 kb/s
Channel(s)                               : 2 channels
Channel positions                        : Front: L R
Sampling rate                            : 48.0 kHz
Frame rate                               : 11.719 FPS (4096 spf)
Bit depth                                : 16 bits
Stream size                              : 126 MiB (7%)
Writing library                          : libFLAC 1.3.1 (UTC 2014-11-25)
Language                                 : English
Default                                  : Yes
Forced                                   : No

Audio #2
ID                                       : 3
Format                                   : FLAC
Format/Info                              : Free Lossless Audio Codec
Codec ID                                 : A_FLAC
Duration                                 : 24 min 21 s
Bit rate mode                            : Variable
Bit rate                                 : 1 474 kb/s
Channel(s)                               : 2 channels
Channel positions                        : Front: L R
Sampling rate                            : 48.0 kHz
Frame rate                               : 11.719 FPS (4096 spf)
Bit depth                                : 24 bits
Stream size                              : 257 MiB (15%)
Writing library                          : libFLAC 1.2.1 (UTC 2007-09-17)
Language                                 : Japanese
Default                                  : No
Forced                                   : No

Text #1
ID                                       : 4
Format                                   : ASS
Codec ID                                 : S_TEXT/ASS
Codec ID/Info                            : Advanced Sub Station Alpha
Duration                                 : 23 min 7 s
Bit rate                                 : 306 b/s
Count of elements                        : 434
Compression mode                         : Lossless
Stream size                              : 51.9 KiB (0%)
Title                                    : Signs & Songs
Language                                 : zxx
Default                                  : Yes
Forced                                   : No

Text #2
ID                                       : 5
Format                                   : ASS
Codec ID                                 : S_TEXT/ASS
Codec ID/Info                            : Advanced Sub Station Alpha
Duration                                 : 24 min 1 s
Bit rate                                 : 408 b/s
Count of elements                        : 799
Compression mode                         : Lossless
Stream size                              : 71.9 KiB (0%)
Title                                    : Full Subtitles (SallySubs)
Language                                 : English
Default                                  : No
Forced                                   : No

Menu
00:00:00.000                             : en:Intro
00:01:16.993                             : en:Opening
00:02:47.042                             : en:Part A
00:15:01.984                             : en:Part B
00:22:29.973                             : en:Ending
00:24:00.022                             : en:Preview

Other Files in this Torrent
[Kametsu] One Punch Man - 10 (BD 1080p Hi10 FLAC) [E8C49B0D].mkv
beta
Anime DDL+NZB mirror
Current Time: 27/11/2021 17:12



About/FAQs

Discord