[Kametsu] One Punch Man - 05 (BD 1080p Hi10 FLAC) [CC63F8B8].mkv


File Size1.728 GB (1,855,325,004 bytes)
DownloadClickNUpload: Part1, Part2
Jheberg: Part1, Part2
MultiUp: Part1
  • ClickNupload
  • Fichier
  • Filerio
  • Free
  • Fufox
  • HugeFiles
  • Mightyupload
  • ToutBox
  • Turbobit
  • UpToBox
  • Uplea
  • UploadBaz
  • Uploadable
  • Uploaded
  • Uppit
  • Userscloud
, Part2
  • ClickNupload
  • Fichier
  • Filerio
  • Free
  • Fufox
  • HugeFiles
  • Mightyupload
  • ToutBox
  • Turbobit
  • UpToBox
  • Uplea
  • UploadBaz
  • Uploadable
  • Uploaded
  • Uppit
  • Userscloud

OpenLoad: Part1, Part2
Sendspace: Part1, Part2, Part3, Part4, Part5, Part6
SolidFiles: Part1, Part2, Part3, Part4
HashesCRC32: CC63F8B8, MD5: 669D6E50F28837AC218E09F542AB5408, SHA1: E3607D9E4B4E0BB47A0D2A098D0472AAD3E74ABA, SHA256: A86DC44D67BDFDBB92E0FD45D00050F41BC5549F7E3829C377BA7C8343145599, ED2K: 90D2DFBF60494AD7A08EFDBCF4066D6E
Screenshots
screenshotscreenshotscreenshotscreenshotscreenshot
SubtitlesAll Attachments | Signs & Songs [zxx, ASS], Full Subtitles (SallySubs) [eng, ASS]
Additional Info
General
Unique ID                                : 233251198018236329594604987385465257084 (0xAF7A8BF3669C482F8F2393DC19E7BC7C)
Complete name                            : [Kametsu] One Punch Man - 05 (BD 1080p Hi10 FLAC) [CC63F8B8].mkv
Format                                   : Matroska
Format version                           : Version 4 / Version 2
File size                                : 1.73 GiB
Duration                                 : 24 min 21 s
Overall bit rate mode                    : Variable
Overall bit rate                         : 10.2 Mb/s
Movie name                               : One Punch Man - 05
Encoded date                             : UTC 2017-04-26 22:20:39
Writing application                      : mkvmerge v9.2.0 ('Photograph') 64bit
Writing library                          : libebml v1.3.3 + libmatroska v1.4.4
Attachments                              : Cheboyga.ttf / Copybook.TTF / CREABBRG.ttf / DFPLeiSho-SB.ttf / Franchise-Bold-hinted.ttf / JennaSue.ttf / Rosario-Bold.ttf / Rosario-BoldItalic.ttf / SWZ721H.ttf / AdobeHeiti-Kami.ttf / AllThatMatters.ttf / Brush Strokes.ttf / cambria.ttc / cambriab.ttf / CentraleSansRnd-ExtraBold.ttf

Video
ID                                       : 1
Format                                   : AVC
Format/Info                              : Advanced Video Codec
Format profile                           : High 10@L5
Format settings, CABAC                   : Yes
Format settings, ReFrames                : 4 frames
Codec ID                                 : V_MPEG4/ISO/AVC
Duration                                 : 24 min 21 s
Bit rate                                 : 8 012 kb/s
Width                                    : 1 920 pixels
Height                                   : 1 080 pixels
Display aspect ratio                     : 16:9
Frame rate mode                          : Constant
Frame rate                               : 23.976 (24000/1001) FPS
Color space                              : YUV
Chroma subsampling                       : 4:2:0
Bit depth                                : 10 bits
Scan type                                : Progressive
Bits/(Pixel*Frame)                       : 0.161
Stream size                              : 1.36 GiB (79%)
Writing library                          : x264 core 148 (DJATOM's build)
Encoding settings                        : cabac=1 / ref=4 / deblock=1:1:-1 / analyse=0x3:0x113 / me=umh / subme=9 / psy=1 / fade_compensate=0.00 / psy_rd=1.00:0.00 / mixed_ref=1 / me_range=32 / chroma_me=1 / trellis=2 / 8x8dct=1 / cqm=0 / deadzone=21,11 / fast_pskip=1 / chroma_qp_offset=-2 / threads=12 / lookahead_threads=2 / sliced_threads=0 / nr=0 / decimate=1 / interlaced=0 / bluray_compat=0 / constrained_intra=0 / bframes=9 / b_pyramid=2 / b_adapt=2 / b_bias=0 / direct=1 / weightb=1 / open_gop=0 / weightp=2 / keyint=250 / keyint_min=23 / scenecut=40 / intra_refresh=0 / rc=crf / mbtree=0 / crf=15.0000 / qcomp=0.72 / qpmin=0 / qpmax=81 / qpstep=4 / ip_ratio=1.40 / pb_ratio=1.30 / aq=1:0.85
Language                                 : Japanese
Default                                  : Yes
Forced                                   : No
Color range                              : Limited
Color primaries                          : BT.709
Transfer characteristics                 : BT.709
Matrix coefficients                      : BT.709

Audio #1
ID                                       : 2
Format                                   : FLAC
Format/Info                              : Free Lossless Audio Codec
Codec ID                                 : A_FLAC
Duration                                 : 24 min 21 s
Bit rate mode                            : Variable
Bit rate                                 : 694 kb/s
Channel(s)                               : 2 channels
Channel positions                        : Front: L R
Sampling rate                            : 48.0 kHz
Frame rate                               : 11.719 FPS (4096 spf)
Bit depth                                : 16 bits
Stream size                              : 121 MiB (7%)
Writing library                          : libFLAC 1.3.1 (UTC 2014-11-25)
Language                                 : English
Default                                  : Yes
Forced                                   : No

Audio #2
ID                                       : 3
Format                                   : FLAC
Format/Info                              : Free Lossless Audio Codec
Codec ID                                 : A_FLAC
Duration                                 : 24 min 21 s
Bit rate mode                            : Variable
Bit rate                                 : 1 415 kb/s
Channel(s)                               : 2 channels
Channel positions                        : Front: L R
Sampling rate                            : 48.0 kHz
Frame rate                               : 11.719 FPS (4096 spf)
Bit depth                                : 24 bits
Stream size                              : 246 MiB (14%)
Writing library                          : libFLAC 1.2.1 (UTC 2007-09-17)
Language                                 : Japanese
Default                                  : No
Forced                                   : No

Text #1
ID                                       : 4
Format                                   : ASS
Codec ID                                 : S_TEXT/ASS
Codec ID/Info                            : Advanced Sub Station Alpha
Duration                                 : 24 min 18 s
Bit rate                                 : 6 581 b/s
Count of elements                        : 4921
Compression mode                         : Lossless
Stream size                              : 1.14 MiB (0%)
Title                                    : Signs & Songs
Language                                 : zxx
Default                                  : Yes
Forced                                   : No

Text #2
ID                                       : 5
Format                                   : ASS
Codec ID                                 : S_TEXT/ASS
Codec ID/Info                            : Advanced Sub Station Alpha
Duration                                 : 24 min 18 s
Bit rate                                 : 6 679 b/s
Count of elements                        : 5228
Compression mode                         : Lossless
Stream size                              : 1.16 MiB (0%)
Title                                    : Full Subtitles (SallySubs)
Language                                 : English
Default                                  : No
Forced                                   : No

Menu
00:00:00.000                             : en:Intro
00:01:09.986                             : en:Opening
00:02:40.034                             : en:Part A
00:12:05.015                             : en:Part B
00:22:02.029                             : en:Ending
00:23:31.993                             : en:Outro
00:24:00.021                             : en:Preview

Other Files in this Torrent
[Kametsu] One Punch Man - 05 (BD 1080p Hi10 FLAC) [CC63F8B8].mkv
beta
Anime DDL+NZB mirror
Current Time: 27/11/2021 17:32



About/FAQs

Discord