[Kametsu] One Punch Man - 02 (BD 1080p Hi10 FLAC) [69645821].mkv


File Size2.077 GB (2,230,342,684 bytes)
DownloadClickNUpload: Part1, Part2, Part3
Jheberg: Part1, Part2, Part3
MultiUp: Part1
  • ClickNupload
  • Fichier
  • Filerio
  • Free
  • Fufox
  • HugeFiles
  • Mightyupload
  • ToutBox
  • Turbobit
  • UpToBox
  • Uplea
  • UploadBaz
  • Uploadable
  • Uploaded
  • Uppit
  • Userscloud
, Part2
  • ClickNupload
  • Fichier
  • Filerio
  • Free
  • Fufox
  • HugeFiles
  • Mightyupload
  • ToutBox
  • Turbobit
  • UpToBox
  • Uplea
  • UploadBaz
  • Uploadable
  • Uploaded
  • Uppit
  • Userscloud
, Part3
  • ClickNupload
  • Fichier
  • Filerio
  • Free
  • Fufox
  • HugeFiles
  • Mightyupload
  • ToutBox
  • Turbobit
  • UpToBox
  • Uplea
  • UploadBaz
  • Uploadable
  • Uploaded
  • Uppit
  • Userscloud

OpenLoad: Part1, Part2, Part3
Sendspace: Part1, Part2, Part3, Part4, Part5, Part6, Part7, Part8
SolidFiles: Part1, Part2, Part3, Part4, Part5
HashesCRC32: 69645821, MD5: 7CD3C514AC55D4124F981B5F2281AC37, SHA1: AFAD62F1BDEF1D1368D81D2E01D900580F9B8099, SHA256: 9BD2F65B5E3C9D599EA3E58648CEB3311134F7819EB51A24B722B7A386AFB925, ED2K: 26E23A0D04827CE03066020C82605E44
Screenshots
screenshotscreenshotscreenshotscreenshotscreenshot
SubtitlesAll Attachments | Signs & Songs [zxx, ASS], Full Subtitles (SallySubs) [eng, ASS]
Additional Info
General
Unique ID                                : 249237788265003295610860889358011702432 (0xBB8173B441973D20AA898F1BC8DB9CA0)
Complete name                            : [Kametsu] One Punch Man - 02 (BD 1080p Hi10 FLAC) [69645821].mkv
Format                                   : Matroska
Format version                           : Version 4 / Version 2
File size                                : 2.08 GiB
Duration                                 : 24 min 21 s
Overall bit rate mode                    : Variable
Overall bit rate                         : 12.2 Mb/s
Movie name                               : One Punch Man - 02
Encoded date                             : UTC 2017-04-26 22:16:43
Writing application                      : mkvmerge v9.2.0 ('Photograph') 64bit
Writing library                          : libebml v1.3.3 + libmatroska v1.4.4
Attachments                              : calibrib.ttf / Candombe.ttf / DISTInking-Bold.otf / Franchise-Bold-hinted.ttf / JennaSue.ttf / Rosario-Bold.ttf / Rosario-BoldItalic.ttf / bertoltbrecht.ttf / bubblegun.ttf

Video
ID                                       : 1
Format                                   : AVC
Format/Info                              : Advanced Video Codec
Format profile                           : High 10@L5
Format settings, CABAC                   : Yes
Format settings, ReFrames                : 4 frames
Codec ID                                 : V_MPEG4/ISO/AVC
Duration                                 : 24 min 20 s
Bit rate                                 : 9 965 kb/s
Width                                    : 1 920 pixels
Height                                   : 1 080 pixels
Display aspect ratio                     : 16:9
Frame rate mode                          : Constant
Frame rate                               : 23.976 (24000/1001) FPS
Color space                              : YUV
Chroma subsampling                       : 4:2:0
Bit depth                                : 10 bits
Scan type                                : Progressive
Bits/(Pixel*Frame)                       : 0.200
Stream size                              : 1.69 GiB (82%)
Writing library                          : x264 core 148 (DJATOM's build)
Encoding settings                        : cabac=1 / ref=4 / deblock=1:1:-1 / analyse=0x3:0x113 / me=umh / subme=9 / psy=1 / fade_compensate=0.00 / psy_rd=1.00:0.00 / mixed_ref=1 / me_range=32 / chroma_me=1 / trellis=2 / 8x8dct=1 / cqm=0 / deadzone=21,11 / fast_pskip=1 / chroma_qp_offset=-2 / threads=12 / lookahead_threads=2 / sliced_threads=0 / nr=0 / decimate=1 / interlaced=0 / bluray_compat=0 / constrained_intra=0 / bframes=9 / b_pyramid=2 / b_adapt=2 / b_bias=0 / direct=1 / weightb=1 / open_gop=0 / weightp=2 / keyint=250 / keyint_min=23 / scenecut=40 / intra_refresh=0 / rc=crf / mbtree=0 / crf=15.0000 / qcomp=0.72 / qpmin=0 / qpmax=81 / qpstep=4 / ip_ratio=1.40 / pb_ratio=1.30 / aq=1:0.85
Language                                 : Japanese
Default                                  : Yes
Forced                                   : No
Color range                              : Limited
Color primaries                          : BT.709
Transfer characteristics                 : BT.709
Matrix coefficients                      : BT.709

Audio #1
ID                                       : 2
Format                                   : FLAC
Format/Info                              : Free Lossless Audio Codec
Codec ID                                 : A_FLAC
Duration                                 : 24 min 21 s
Bit rate mode                            : Variable
Bit rate                                 : 743 kb/s
Channel(s)                               : 2 channels
Channel positions                        : Front: L R
Sampling rate                            : 48.0 kHz
Frame rate                               : 11.719 FPS (4096 spf)
Bit depth                                : 16 bits
Stream size                              : 129 MiB (6%)
Writing library                          : libFLAC 1.3.1 (UTC 2014-11-25)
Language                                 : English
Default                                  : Yes
Forced                                   : No

Audio #2
ID                                       : 3
Format                                   : FLAC
Format/Info                              : Free Lossless Audio Codec
Codec ID                                 : A_FLAC
Duration                                 : 24 min 20 s
Bit rate mode                            : Variable
Bit rate                                 : 1 481 kb/s
Channel(s)                               : 2 channels
Channel positions                        : Front: L R
Sampling rate                            : 48.0 kHz
Frame rate                               : 11.719 FPS (4096 spf)
Bit depth                                : 24 bits
Stream size                              : 258 MiB (12%)
Writing library                          : libFLAC 1.2.1 (UTC 2007-09-17)
Language                                 : Japanese
Default                                  : No
Forced                                   : No

Text #1
ID                                       : 4
Format                                   : ASS
Codec ID                                 : S_TEXT/ASS
Codec ID/Info                            : Advanced Sub Station Alpha
Duration                                 : 24 min 0 s
Bit rate                                 : 5 228 b/s
Count of elements                        : 4396
Compression mode                         : Lossless
Stream size                              : 919 KiB (0%)
Title                                    : Signs & Songs
Language                                 : zxx
Default                                  : Yes
Forced                                   : No

Text #2
ID                                       : 5
Format                                   : ASS
Codec ID                                 : S_TEXT/ASS
Codec ID/Info                            : Advanced Sub Station Alpha
Duration                                 : 24 min 18 s
Bit rate                                 : 5 256 b/s
Count of elements                        : 4700
Compression mode                         : Lossless
Stream size                              : 936 KiB (0%)
Title                                    : Full Subtitles (SallySubs)
Language                                 : English
Default                                  : No
Forced                                   : No

Menu
00:00:00.000                             : en:Intro
00:02:00.036                             : en:Opening
00:03:30.001                             : en:Part A
00:11:17.969                             : en:Part B
00:22:08.952                             : en:Ending
00:23:38.917                             : en:Outro
00:23:59.938                             : en:Preview

Other Files in this Torrent
[Kametsu] One Punch Man - 02 (BD 1080p Hi10 FLAC) [69645821].mkv
beta
Anime DDL+NZB mirror
Current Time: 27/11/2021 16:46



About/FAQs

Discord