Jujutsu.Kaisen.S01E20.1080p.BluRay.H264.AAC-STARZ.mkv


File Size464.6 MB (487,176,486 bytes)
DownloadClickNUpload | DownloadGG | MultiUp
  • BdUpload
  • DownAce
  • Fichier
  • FileCloud
  • Filerio
  • FilesCdn
  • IndiShare
  • Kbagi
  • Turbobit
  • UpToBox
  • Uppit
| ZippyShare
HashesCRC32: 86695D3A, MD5: 3813617D70A9681CD210B8946D27C348, SHA1: F1CD08595FC4B58B302EB218F717801DAB950AD8, SHA256: D9ACBE43C8A4DCDACF2F1C2B387C6D88BBC1E7349E6637034D0C7C04EC7A22F7, ED2K: 7A17529994F067F26739DA99DBAFBA83
Screenshots
screenshotscreenshotscreenshotscreenshotscreenshot
SubtitlesAll Attachments | Full Subtitles~Kaizoku [eng, ASS]
Additional Info
General
Unique ID                                : 207488265316222044348643225370365882303 (0x9C18C94CCD2DAD56A188DE070C9D6FBF)
Complete name                            : Jujutsu.Kaisen.S01E20.1080p.BluRay.H264.AAC-STARZ.mkv
Format                                   : Matroska
Format version                           : Version 4
File size                                : 465 MiB
Duration                                 : 23 min 41 s
Overall bit rate                         : 2 743 kb/s
Encoded by                               : STARZZZ~0.1
Encoded date                             : UTC 2022-04-19 23:10:33
Writing application                      : mkvmerge v67.0.0 ('Under Stars') 64-bit
Writing library                          : libebml v1.4.2 + libmatroska v1.6.4 / Lavf59.16.100
Attachments                              : Airstream-ITC-TT.ttf / Aquillia-Bold.ttf / Brush-Strokes.ttf / Buxton-Sketch.ttf / Cabin-Bold.ttf / Change-Tomorrow-Today.ttf / DFPGothicUB-AnoHana.ttf / Filirator.ttf / FolkPro-En-Bold.OTF / georgia bold.ttf / Georgia.ttf / KozGoPr6N-Bold.OTF / LTFinnegan Medium.ttf / LTFinnegan MediumItalic.ttf / Ragnar.ttf / times.ttf / TsukuGoPro-B.otf / VERDANAB.TTF

Video
ID                                       : 1
Format                                   : AVC
Format/Info                              : Advanced Video Codec
Format profile                           : High@L4.1
Format settings                          : CABAC / 4 Ref Frames
Format settings, CABAC                   : Yes
Format settings, Reference frames        : 4 frames
Codec ID                                 : V_MPEG4/ISO/AVC
Duration                                 : 23 min 41 s
Bit rate                                 : 2 500 kb/s
Width                                    : 1 920 pixels
Height                                   : 1 080 pixels
Display aspect ratio                     : 16:9
Frame rate mode                          : Constant
Frame rate                               : 23.976 (24000/1001) FPS
Color space                              : YUV
Chroma subsampling                       : 4:2:0
Bit depth                                : 8 bits
Scan type                                : Progressive
Bits/(Pixel*Frame)                       : 0.050
Stream size                              : 423 MiB (91%)
Title                                    : BD x264 8bits~STARZ
Writing library                          : x264 core 164 r3065 ae03d92
Encoding settings                        : cabac=1 / ref=4 / deblock=1:-3:-3 / analyse=0x3:0x133 / me=umh / subme=10 / psy=1 / psy_rd=1.00:0.00 / mixed_ref=1 / me_range=32 / chroma_me=1 / trellis=2 / 8x8dct=1 / cqm=0 / deadzone=21,11 / fast_pskip=0 / chroma_qp_offset=-2 / threads=18 / lookahead_threads=3 / sliced_threads=0 / nr=0 / decimate=0 / interlaced=0 / bluray_compat=0 / constrained_intra=0 / bframes=8 / b_pyramid=2 / b_adapt=2 / b_bias=0 / direct=3 / weightb=1 / open_gop=0 / weightp=2 / keyint=240 / keyint_min=24 / scenecut=40 / intra_refresh=0 / rc_lookahead=60 / rc=2pass / mbtree=0 / bitrate=2500 / ratetol=1.0 / qcomp=0.60 / qpmin=0 / qpmax=69 / qpstep=4 / cplxblur=20.0 / qblur=0.5 / vbv_maxrate=62500 / vbv_bufsize=78125 / nal_hrd=none / filler=0 / ip_ratio=1.40 / pb_ratio=1.30 / aq=2:1.00
Default                                  : Yes
Forced                                   : No
Color range                              : Limited
Color primaries                          : BT.709
Transfer characteristics                 : BT.709
Matrix coefficients                      : BT.709

Audio
ID                                       : 2
Format                                   : AAC LC
Format/Info                              : Advanced Audio Codec Low Complexity
Codec ID                                 : A_AAC-2
Duration                                 : 23 min 41 s
Bit rate                                 : 132 kb/s
Channel(s)                               : 2 channels
Channel layout                           : L R
Sampling rate                            : 44.1 kHz
Frame rate                               : 43.066 FPS (1024 SPF)
Compression mode                         : Lossy
Delay relative to video                  : -17 ms
Stream size                              : 22.1 MiB (5%)
Title                                    : JPN AAC LC 2.0~STARZ
Language                                 : Japanese
Default                                  : Yes
Forced                                   : No

Text
ID                                       : 3
Format                                   : ASS
Codec ID                                 : S_TEXT/ASS
Codec ID/Info                            : Advanced Sub Station Alpha
Duration                                 : 23 min 37 s
Bit rate                                 : 46.0 kb/s
Count of elements                        : 8947
Compression mode                         : Lossless
Stream size                              : 7.77 MiB (2%)
Title                                    : Full Subtitles~Kaizoku
Language                                 : English
Default                                  : Yes
Forced                                   : No

Menu
00:00:00.000                             : :Chapter 1
00:01:07.109                             : :Chapter 2
00:02:37.240                             : :Chapter 3
00:08:45.108                             : :Chapter 4
00:21:26.035                             : :Chapter 5
00:22:56.083                             : :Chapter 6
00:23:31.076                             : :Chapter 7

Other Files in this Torrent
Jujutsu.Kaisen.S01E20.1080p.BluRay.H264.AAC-STARZ.mkv
beta
Anime DDL+NZB mirror
Current Time: 12/07/2024 15:18



About/FAQs

Discord