Jujutsu.Kaisen.S01E04.1080p.BluRay.H264.AAC-STARZ.mkv


File Size457.9 MB (480,130,322 bytes)
DownloadClickNUpload | DownloadGG | MultiUp
  • BdUpload
  • DownAce
  • Fichier
  • FileCloud
  • Filerio
  • FilesCdn
  • IndiShare
  • Kbagi
  • Turbobit
  • UpToBox
  • Uppit
| ZippyShare
HashesCRC32: 8D1B279B, MD5: DDDE0A31C1C5C633DD90DBEFD02A672C, SHA1: 14AEA04C0E9AD487970AEF2491BF06E496A61792, SHA256: 789890AB1666E37337787491D0014E7D2FF5EF02E8F50166BBC4684BB7ABB1F7, ED2K: 44343E079A6BDC8CBE5A86C5195B4468
Screenshots
screenshotscreenshotscreenshotscreenshotscreenshot
SubtitlesAll Attachments | Full Subtitles~Kaizoku [eng, ASS]
Additional Info
General
Unique ID                                : 135344795658661944460436661274057182304 (0x65D275A052EC59147E3B3504FA090C60)
Complete name                            : Jujutsu.Kaisen.S01E04.1080p.BluRay.H264.AAC-STARZ.mkv
Format                                   : Matroska
Format version                           : Version 4
File size                                : 458 MiB
Duration                                 : 23 min 56 s
Overall bit rate                         : 2 675 kb/s
Encoded by                               : STARZZZ~0.1
Encoded date                             : UTC 2022-04-19 23:00:10
Writing application                      : mkvmerge v67.0.0 ('Under Stars') 64-bit
Writing library                          : libebml v1.4.2 + libmatroska v1.6.4 / Lavf59.16.100
Attachments                              : Aquillia-Bold.ttf / Barthowheel-Regular.ttf / Boopee.ttf / Brush-Strokes.ttf / Cabin-Bold.ttf / Chalkduster.ttf / ChiaroStdEN-B.otf / LTFinnegan Medium.ttf / LTFinnegan MediumItalic.ttf / Pixel-Arial-11.ttf / Ragnar.ttf

Video
ID                                       : 1
Format                                   : AVC
Format/Info                              : Advanced Video Codec
Format profile                           : High@L4.1
Format settings                          : CABAC / 4 Ref Frames
Format settings, CABAC                   : Yes
Format settings, Reference frames        : 4 frames
Codec ID                                 : V_MPEG4/ISO/AVC
Duration                                 : 23 min 56 s
Bit rate                                 : 2 500 kb/s
Width                                    : 1 920 pixels
Height                                   : 1 080 pixels
Display aspect ratio                     : 16:9
Frame rate mode                          : Constant
Frame rate                               : 23.976 (24000/1001) FPS
Color space                              : YUV
Chroma subsampling                       : 4:2:0
Bit depth                                : 8 bits
Scan type                                : Progressive
Bits/(Pixel*Frame)                       : 0.050
Stream size                              : 428 MiB (93%)
Title                                    : BD x264 8bits~STARZ
Writing library                          : x264 core 164 r3065 ae03d92
Encoding settings                        : cabac=1 / ref=4 / deblock=1:-3:-3 / analyse=0x3:0x133 / me=umh / subme=10 / psy=1 / psy_rd=1.00:0.00 / mixed_ref=1 / me_range=32 / chroma_me=1 / trellis=2 / 8x8dct=1 / cqm=0 / deadzone=21,11 / fast_pskip=0 / chroma_qp_offset=-2 / threads=18 / lookahead_threads=3 / sliced_threads=0 / nr=0 / decimate=0 / interlaced=0 / bluray_compat=0 / constrained_intra=0 / bframes=8 / b_pyramid=2 / b_adapt=2 / b_bias=0 / direct=3 / weightb=1 / open_gop=0 / weightp=2 / keyint=240 / keyint_min=24 / scenecut=40 / intra_refresh=0 / rc_lookahead=60 / rc=2pass / mbtree=0 / bitrate=2500 / ratetol=1.0 / qcomp=0.60 / qpmin=0 / qpmax=69 / qpstep=4 / cplxblur=20.0 / qblur=0.5 / vbv_maxrate=62500 / vbv_bufsize=78125 / nal_hrd=none / filler=0 / ip_ratio=1.40 / pb_ratio=1.30 / aq=2:1.00
Default                                  : Yes
Forced                                   : No
Color range                              : Limited
Color primaries                          : BT.709
Transfer characteristics                 : BT.709
Matrix coefficients                      : BT.709

Audio
ID                                       : 2
Format                                   : AAC LC
Format/Info                              : Advanced Audio Codec Low Complexity
Codec ID                                 : A_AAC-2
Duration                                 : 23 min 56 s
Bit rate                                 : 132 kb/s
Channel(s)                               : 2 channels
Channel layout                           : L R
Sampling rate                            : 44.1 kHz
Frame rate                               : 43.066 FPS (1024 SPF)
Compression mode                         : Lossy
Delay relative to video                  : -17 ms
Stream size                              : 22.5 MiB (5%)
Title                                    : JPN AAC LC 2.0~STARZ
Language                                 : Japanese
Default                                  : Yes
Forced                                   : No

Text
ID                                       : 3
Format                                   : ASS
Codec ID                                 : S_TEXT/ASS
Codec ID/Info                            : Advanced Sub Station Alpha
Duration                                 : 23 min 50 s
Bit rate                                 : 24.4 kb/s
Count of elements                        : 5209
Compression mode                         : Lossless
Stream size                              : 4.16 MiB (1%)
Title                                    : Full Subtitles~Kaizoku
Language                                 : English
Default                                  : Yes
Forced                                   : No

Menu
00:00:00.000                             : :Chapter 1
00:02:55.967                             : :Chapter 2
00:04:26.016                             : :Chapter 3
00:16:16.976                             : :Chapter 4
00:21:16.025                             : :Chapter 5
00:22:45.990                             : :Chapter 6
00:23:46.008                             : :Chapter 7

Other Files in this Torrent
Jujutsu.Kaisen.S01E04.1080p.BluRay.H264.AAC-STARZ.mkv
beta
Anime DDL+NZB mirror
Current Time: 12/07/2024 13:33



About/FAQs

Discord