File Size538.7 MB (564,894,903 bytes)
DownloadClickNUpload | DownloadGG | DropAPK
MultiUp: Part1
  • BdUpload
  • DownAce
  • Fichier
  • FileCloud
  • Filerio
  • FilesCdn
  • IndiShare
  • Kbagi
  • Turbobit
  • UpToBox
  • Uppit
, Part2
  • BdUpload
  • DownAce
  • Fichier
  • FileCloud
  • Filerio
  • FilesCdn
  • IndiShare
  • Kbagi
  • Turbobit
  • UpToBox
  • Uppit

SolidFiles: Part1, Part2
ZippyShare: Part1, Part2
HashesCRC32: A25698DD, MD5: 00E5375B66C2C0077482D8139A311E67, SHA1: 044561488923F89B1BCCD795772EED51DF1B6211, SHA256: 71AE14141EB5F1DDC7B4C46B14B9C77E7A1CDD57BF279000D302721917966E84, ED2K: BD4D5E0047BDB25E5AC604EBEF71782B
Screenshots
screenshotscreenshotscreenshotscreenshotscreenshot
SubtitlesAll Attachments | Dialogue [BD] [eng, PGS], Signs & Songs [BD] [eng, PGS], Signs & Songs [EMBER] [eng, ASS], Dialogue [Asakura] [eng, ASS]
Additional Info
General
Unique ID                                : 145784577525003064353708904446186489063 (0x6DAD169CB2BC62D1DCA96F62E28804E7)
Complete name                            : Isekai Quartet - 08.mkv
Format                                   : Matroska
Format version                           : Version 4
File size                                : 539 MiB
Duration                                 : 11 min 51 s
Overall bit rate mode                    : Variable
Overall bit rate                         : 6 356 kb/s
Movie name                               : Isekai Quartet - 08
Encoded date                             : UTC 2021-08-12 06:51:57
Writing application                      : mkvmerge v60.0.0 ('Are We Copies?') 64-bit
Writing library                          : libebml v1.4.2 + libmatroska v1.6.4
Cover                                    : Yes
Attachments                              : ITCKRIST.TTF / ERASBD.TTF / Crazy Rascals.ttf / bahnschrift.ttf / erasdust.ttf / ARLRDBD.TTF / blowbrush.otf / Cupid Love.ttf / BRLNSR.TTF / arial.ttf / MAGRA-BOLD.TTF / BRADHITC.TTF / Gloss_And_Bloom.ttf / FantasticBoogaloo.ttf / cover.jpg / Bubblegum.ttf / Dimbo Regular.ttf / erasdus0.ttf / Gandhisans-Bold.otf / PIXEARG.TTF / Arvo-Bold.ttf / Avantgarde Bk Bt Eclipse_Book.ttf

Video
ID                                       : 1
Format                                   : AVC
Format/Info                              : Advanced Video Codec
Format profile                           : High@L5
Format settings                          : CABAC / 5 Ref Frames
Format settings, CABAC                   : Yes
Format settings, ReFrames                : 5 frames
Codec ID                                 : V_MPEG4/ISO/AVC
Duration                                 : 11 min 51 s
Bit rate                                 : 4 910 kb/s
Width                                    : 1 920 pixels
Height                                   : 1 080 pixels
Display aspect ratio                     : 16:9
Frame rate mode                          : Constant
Frame rate                               : 23.976 (24000/1001) FPS
Color space                              : YUV
Chroma subsampling                       : 4:2:0
Bit depth                                : 8 bits
Scan type                                : Progressive
Bits/(Pixel*Frame)                       : 0.099
Stream size                              : 416 MiB (77%)
Title                                    : [Moozzi2] H.264
Writing library                          : x264 core 157 r2935 545de2f
Encoding settings                        : cabac=1 / ref=5 / deblock=1:1:1 / analyse=0x3:0x113 / me=umh / subme=9 / psy=1 / psy_rd=1.00:0.00 / mixed_ref=1 / me_range=32 / chroma_me=1 / trellis=1 / 8x8dct=1 / cqm=0 / deadzone=21,11 / fast_pskip=0 / chroma_qp_offset=-2 / threads=34 / lookahead_threads=2 / sliced_threads=0 / nr=0 / decimate=1 / interlaced=0 / bluray_compat=0 / stitchable=1 / constrained_intra=0 / bframes=3 / b_pyramid=2 / b_adapt=2 / b_bias=0 / direct=1 / weightb=1 / open_gop=0 / weightp=1 / keyint=240 / keyint_min=23 / scenecut=40 / intra_refresh=0 / rc_lookahead=40 / rc=crf / mbtree=1 / crf=16.0 / qcomp=0.65 / qpmin=0 / qpmax=69 / qpstep=4 / ip_ratio=1.40 / aq=1:1.00
Language                                 : Japanese
Default                                  : Yes
Forced                                   : No

Audio #1
ID                                       : 2
Format                                   : FLAC
Format/Info                              : Free Lossless Audio Codec
Codec ID                                 : A_FLAC
Duration                                 : 11 min 51 s
Bit rate mode                            : Variable
Bit rate                                 : 734 kb/s
Channel(s)                               : 2 channels
Channel layout                           : L R
Sampling rate                            : 48.0 kHz
Frame rate                               : 11.719 FPS (4096 SPF)
Bit depth                                : 16 bits
Compression mode                         : Lossless
Stream size                              : 62.2 MiB (12%)
Title                                    : FLAC 2.0
Writing library                          : libFLAC 1.3.2 (UTC 2017-01-01)
Language                                 : Japanese
Default                                  : No
Forced                                   : No

Audio #2
ID                                       : 3
Format                                   : AAC LC
Format/Info                              : Advanced Audio Codec Low Complexity
Codec ID                                 : A_AAC-2
Duration                                 : 11 min 50 s
Bit rate                                 : 253 kb/s
Channel(s)                               : 2 channels
Channel layout                           : L R
Sampling rate                            : 48.0 kHz
Frame rate                               : 46.875 FPS (1024 SPF)
Compression mode                         : Lossy
Delay relative to video                  : 15 ms
Stream size                              : 21.4 MiB (4%)
Title                                    : AAC 2.0 [LostYears]
Language                                 : English
Default                                  : No
Forced                                   : No

Audio #3
ID                                       : 4
Format                                   : AC-3
Format/Info                              : Audio Coding 3
Commercial name                          : Dolby Digital
Codec ID                                 : A_AC3
Duration                                 : 11 min 49 s
Bit rate mode                            : Constant
Bit rate                                 : 384 kb/s
Channel(s)                               : 6 channels
Channel layout                           : L R C LFE Ls Rs
Sampling rate                            : 48.0 kHz
Frame rate                               : 31.250 FPS (1536 SPF)
Bit depth                                : 16 bits
Compression mode                         : Lossy
Delay relative to video                  : 31 ms
Stream size                              : 32.5 MiB (6%)
Title                                    : AC-3 5.1 [EMBER]
Language                                 : English
Service kind                             : Complete Main
Default                                  : Yes
Forced                                   : No

Text #1
ID                                       : 5
Format                                   : PGS
Muxing mode                              : zlib
Codec ID                                 : S_HDMV/PGS
Codec ID/Info                            : Picture based subtitle format used on BDs/HD-DVDs
Duration                                 : 11 min 47 s
Bit rate                                 : 63.9 kb/s
Count of elements                        : 479
Stream size                              : 5.39 MiB (1%)
Title                                    : Dialogue [BD]
Language                                 : English
Default                                  : No
Forced                                   : No

Text #2
ID                                       : 6
Format                                   : PGS
Muxing mode                              : zlib
Codec ID                                 : S_HDMV/PGS
Codec ID/Info                            : Picture based subtitle format used on BDs/HD-DVDs
Duration                                 : 11 min 23 s
Bit rate                                 : 19.5 kb/s
Count of elements                        : 115
Stream size                              : 1.59 MiB (0%)
Title                                    : Signs & Songs [BD]
Language                                 : English
Default                                  : No
Forced                                   : No

Text #3
ID                                       : 7
Format                                   : ASS
Codec ID                                 : S_TEXT/ASS
Codec ID/Info                            : Advanced Sub Station Alpha
Duration                                 : 11 min 22 s
Bit rate                                 : 3 439 b/s
Count of elements                        : 1596
Compression mode                         : Lossless
Stream size                              : 287 KiB (0%)
Title                                    : Signs & Songs [EMBER]
Language                                 : English
Default                                  : Yes
Forced                                   : No

Text #4
ID                                       : 8
Format                                   : ASS
Codec ID                                 : S_TEXT/ASS
Codec ID/Info                            : Advanced Sub Station Alpha
Duration                                 : 11 min 46 s
Bit rate                                 : 3 431 b/s
Count of elements                        : 1780
Compression mode                         : Lossless
Stream size                              : 296 KiB (0%)
Title                                    : Dialogue [Asakura]
Language                                 : English
Default                                  : No
Forced                                   : No

Menu
00:00:00.000                             : Intro
00:00:15.391                             : OP
00:01:44.939                             : Main EP
00:10:22.498                             : ED
00:11:39.950                             : Extra

Other Files in this Torrent
Isekai Quartet - 08.mkv
beta
Anime DDL+NZB mirror
Current Time: 12/07/2024 13:13



About/FAQs

Discord