File Size603.4 MB (632,689,738 bytes)
DownloadClickNUpload | DownloadGG | DropAPK
MultiUp: Part1
  • BdUpload
  • DownAce
  • Fichier
  • FileCloud
  • Filerio
  • FilesCdn
  • IndiShare
  • Kbagi
  • Turbobit
  • UpToBox
  • Uppit
, Part2
  • BdUpload
  • DownAce
  • Fichier
  • FileCloud
  • Filerio
  • FilesCdn
  • IndiShare
  • Kbagi
  • Turbobit
  • UpToBox
  • Uppit

SolidFiles: Part1, Part2
ZippyShare: Part1, Part2
HashesCRC32: 63DA13A0, MD5: 50374504960043427759ACE891A241D4, SHA1: 0A4593A137BF281E8A8ED07CB0F41D85D77E8130, SHA256: D1C56A259A2706511B3E0B7B03D6846358F99100FAD13A68D1181B0623A9684C, ED2K: D03506BF220BB6493E9C395393938B14
Screenshots
screenshotscreenshotscreenshotscreenshotscreenshot
SubtitlesAll Attachments | Dialogue [BD] [eng, PGS], Signs & Songs [BD] [eng, PGS], Signs & Songs [EMBER] [eng, ASS], Dialogue [Asakura] [eng, ASS]
Additional Info
General
Unique ID                                : 136000068496854890634816389414383401981 (0x6650A91250122671C812CA1EEE9E3BFD)
Complete name                            : Isekai Quartet - 01.mkv
Format                                   : Matroska
Format version                           : Version 4
File size                                : 603 MiB
Duration                                 : 11 min 52 s
Overall bit rate mode                    : Variable
Overall bit rate                         : 7 108 kb/s
Movie name                               : Isekai Quartet - 01
Encoded date                             : UTC 2021-08-12 05:58:34
Writing application                      : mkvmerge v60.0.0 ('Are We Copies?') 64-bit
Writing library                          : libebml v1.4.2 + libmatroska v1.6.4
Cover                                    : Yes
Attachments                              : ITCKRIST.TTF / ERASBD.TTF / bahnschrift.ttf / ARLRDBD.TTF / BRLNSR.TTF / arial.ttf / MAGRA-BOLD.TTF / FantasticBoogaloo.ttf / OpenSans-Semibold.ttf / OpenSans-Semibold.ttf / cover.jpg / Bubblegum.ttf / Gandhisans-Bold.otf / KGRedHands.ttf / PIXEARG.TTF / Arvo-Bold.ttf / Avantgarde Bk Bt Eclipse_Book.ttf

Video
ID                                       : 1
Format                                   : AVC
Format/Info                              : Advanced Video Codec
Format profile                           : High@L5
Format settings                          : CABAC / 5 Ref Frames
Format settings, CABAC                   : Yes
Format settings, ReFrames                : 5 frames
Codec ID                                 : V_MPEG4/ISO/AVC
Duration                                 : 11 min 52 s
Bit rate                                 : 5 637 kb/s
Width                                    : 1 920 pixels
Height                                   : 1 080 pixels
Display aspect ratio                     : 16:9
Frame rate mode                          : Constant
Frame rate                               : 23.976 (24000/1001) FPS
Color space                              : YUV
Chroma subsampling                       : 4:2:0
Bit depth                                : 8 bits
Scan type                                : Progressive
Bits/(Pixel*Frame)                       : 0.113
Stream size                              : 478 MiB (79%)
Title                                    : [Moozzi2] H.264
Writing library                          : x264 core 157 r2935 545de2f
Encoding settings                        : cabac=1 / ref=5 / deblock=1:1:1 / analyse=0x3:0x113 / me=umh / subme=9 / psy=1 / psy_rd=1.00:0.00 / mixed_ref=1 / me_range=32 / chroma_me=1 / trellis=1 / 8x8dct=1 / cqm=0 / deadzone=21,11 / fast_pskip=0 / chroma_qp_offset=-2 / threads=34 / lookahead_threads=2 / sliced_threads=0 / nr=0 / decimate=1 / interlaced=0 / bluray_compat=0 / stitchable=1 / constrained_intra=0 / bframes=3 / b_pyramid=2 / b_adapt=2 / b_bias=0 / direct=1 / weightb=1 / open_gop=0 / weightp=1 / keyint=240 / keyint_min=23 / scenecut=40 / intra_refresh=0 / rc_lookahead=40 / rc=crf / mbtree=1 / crf=16.0 / qcomp=0.65 / qpmin=0 / qpmax=69 / qpstep=4 / ip_ratio=1.40 / aq=1:1.00
Language                                 : Japanese
Default                                  : Yes
Forced                                   : No

Audio #1
ID                                       : 2
Format                                   : FLAC
Format/Info                              : Free Lossless Audio Codec
Codec ID                                 : A_FLAC
Duration                                 : 11 min 52 s
Bit rate mode                            : Variable
Bit rate                                 : 771 kb/s
Channel(s)                               : 2 channels
Channel layout                           : L R
Sampling rate                            : 48.0 kHz
Frame rate                               : 11.720 FPS (4096 SPF)
Bit depth                                : 16 bits
Compression mode                         : Lossless
Stream size                              : 65.4 MiB (11%)
Title                                    : FLAC 2.0
Writing library                          : libFLAC 1.3.2 (UTC 2017-01-01)
Language                                 : Japanese
Default                                  : No
Forced                                   : No

Audio #2
ID                                       : 3
Format                                   : AAC LC
Format/Info                              : Advanced Audio Codec Low Complexity
Codec ID                                 : A_AAC-2
Duration                                 : 11 min 51 s
Bit rate                                 : 253 kb/s
Channel(s)                               : 2 channels
Channel layout                           : L R
Sampling rate                            : 48.0 kHz
Frame rate                               : 46.875 FPS (1024 SPF)
Compression mode                         : Lossy
Delay relative to video                  : 3 ms
Stream size                              : 21.5 MiB (4%)
Title                                    : AAC 2.0 [LostYears]
Language                                 : English
Default                                  : No
Forced                                   : No

Audio #3
ID                                       : 4
Format                                   : AC-3
Format/Info                              : Audio Coding 3
Commercial name                          : Dolby Digital
Codec ID                                 : A_AC3
Duration                                 : 11 min 51 s
Bit rate mode                            : Constant
Bit rate                                 : 384 kb/s
Channel(s)                               : 6 channels
Channel layout                           : L R C LFE Ls Rs
Sampling rate                            : 48.0 kHz
Frame rate                               : 31.250 FPS (1536 SPF)
Bit depth                                : 16 bits
Compression mode                         : Lossy
Stream size                              : 32.5 MiB (5%)
Title                                    : AC-3 5.1 [EMBER]
Language                                 : English
Service kind                             : Complete Main
Default                                  : Yes
Forced                                   : No

Text #1
ID                                       : 5
Format                                   : PGS
Muxing mode                              : zlib
Codec ID                                 : S_HDMV/PGS
Codec ID/Info                            : Picture based subtitle format used on BDs/HD-DVDs
Duration                                 : 11 min 39 s
Bit rate                                 : 75.7 kb/s
Count of elements                        : 439
Stream size                              : 6.31 MiB (1%)
Title                                    : Dialogue [BD]
Language                                 : English
Default                                  : No
Forced                                   : No

Text #2
ID                                       : 6
Format                                   : PGS
Muxing mode                              : zlib
Codec ID                                 : S_HDMV/PGS
Codec ID/Info                            : Picture based subtitle format used on BDs/HD-DVDs
Duration                                 : 7 min 59 s
Bit rate                                 : 24.2 kb/s
Count of elements                        : 108
Stream size                              : 1.38 MiB (0%)
Title                                    : Signs & Songs [BD]
Language                                 : English
Default                                  : No
Forced                                   : No

Text #3
ID                                       : 7
Format                                   : ASS
Codec ID                                 : S_TEXT/ASS
Codec ID/Info                            : Advanced Sub Station Alpha
Duration                                 : 7 min 59 s
Bit rate                                 : 2 745 b/s
Count of elements                        : 1046
Compression mode                         : Lossless
Stream size                              : 161 KiB (0%)
Title                                    : Signs & Songs [EMBER]
Language                                 : English
Default                                  : Yes
Forced                                   : No

Text #4
ID                                       : 8
Format                                   : ASS
Codec ID                                 : S_TEXT/ASS
Codec ID/Info                            : Advanced Sub Station Alpha
Duration                                 : 11 min 39 s
Bit rate                                 : 2 000 b/s
Count of elements                        : 1226
Compression mode                         : Lossless
Stream size                              : 171 KiB (0%)
Title                                    : Dialogue [Asakura]
Language                                 : English
Default                                  : No
Forced                                   : No

Menu
00:00:00.000                             : Intro
00:03:49.187                             : OP
00:05:17.984                             : Main EP
00:10:33.049                             : ED

Other Files in this Torrent
Isekai Quartet - 01.mkv
beta
Anime DDL+NZB mirror
Current Time: 12/07/2024 15:36



About/FAQs

Discord