File Size78.42 MB (82,228,262 bytes)
DownloadAnonFiles | ClickNUpload | DropAPK | Free | MultiUp
  • BdUpload
  • DownAce
  • Fichier
  • FileCloud
  • Filerio
  • FilesCdn
  • IndiShare
  • Kbagi
  • Turbobit
  • UpToBox
  • Uppit
| SolidFiles | ZippyShare
HashesCRC32: 5DF6AD78, MD5: 18B565C848EAB8FBB83A777DDC671830, SHA1: F65213C80DC69702C69FB88CF5CF5E6292A9D05A, SHA256: 0772199403B943E0851E5D5E1303B2B43D0B19D8CDEE29CE7AA0E2EBB72D9995, ED2K: E42CF2DF8131944604AFB22489D38358
Screenshots
screenshotscreenshotscreenshotscreenshotscreenshot
Additional Info
General
Complete name                            : [AS Infinity] Akame Ga Kill! 3.mp4
Format                                   : MPEG-4
Format profile                           : Base Media
Codec ID                                 : isom (isom/avc1)
File size                                : 78.4 MiB
Duration                                 : 23 min 39 s
Overall bit rate mode                    : Variable
Overall bit rate                         : 463 kb/s
Encoded date                             : UTC 2015-08-22 06:49:16
Tagged date                              : UTC 2015-08-22 06:49:16

Video
ID                                       : 1
Format                                   : AVC
Format/Info                              : Advanced Video Codec
Format profile                           : High@L4
Format settings                          : CABAC / 8 Ref Frames
Format settings, CABAC                   : Yes
Format settings, ReFrames                : 8 frames
Codec ID                                 : avc1
Codec ID/Info                            : Advanced Video Coding
Duration                                 : 23 min 39 s
Bit rate                                 : 420 kb/s
Maximum bit rate                         : 1 916 kb/s
Width                                    : 1 280 pixels
Height                                   : 720 pixels
Display aspect ratio                     : 16:9
Frame rate mode                          : Constant
Frame rate                               : 23.976 (24000/1001) FPS
Color space                              : YUV
Chroma subsampling                       : 4:2:0
Bit depth                                : 8 bits
Scan type                                : Progressive
Bits/(Pixel*Frame)                       : 0.019
Stream size                              : 71.1 MiB (91%)
Title                                    : Video
Writing library                          : x264 core 104 r1683 62997d6
Encoding settings                        : cabac=1 / ref=8 / deblock=1:1:2 / analyse=0x3:0x133 / me=umh / subme=9 / psy=1 / psy_rd=0.80:0.00 / mixed_ref=1 / me_range=32 / chroma_me=1 / trellis=2 / 8x8dct=1 / cqm=0 / deadzone=21,11 / fast_pskip=0 / chroma_qp_offset=-2 / threads=18 / sliced_threads=0 / nr=0 / decimate=1 / interlaced=0 / constrained_intra=0 / bframes=8 / b_pyramid=2 / b_adapt=2 / b_bias=0 / direct=3 / weightb=1 / open_gop=0 / weightp=2 / keyint=250 / keyint_min=23 / scenecut=45 / intra_refresh=0 / rc=2pass / mbtree=0 / bitrate=420 / ratetol=1.0 / qcomp=0.60 / qpmin=10 / qpmax=51 / qpstep=4 / cplxblur=20.0 / qblur=0.5 / ip_ratio=1.40 / pb_ratio=1.30 / aq=0
Encoded date                             : UTC 2015-08-22 06:49:16
Tagged date                              : UTC 2015-08-22 06:49:17
Codec configuration box                  : avcC

Audio
ID                                       : 2
Format                                   : AAC LC SBR
Format/Info                              : Advanced Audio Codec Low Complexity with Spectral Band Replication
Commercial name                          : HE-AAC
Format settings                          : Explicit
Codec ID                                 : mp4a-40-2
Duration                                 : 23 min 39 s
Bit rate mode                            : Variable
Bit rate                                 : 40.0 kb/s
Maximum bit rate                         : 53.7 kb/s
Channel(s)                               : 2 channels
Channel layout                           : L R
Sampling rate                            : 48.0 kHz
Frame rate                               : 23.438 FPS (2048 SPF)
Compression mode                         : Lossy
Stream size                              : 6.77 MiB (9%)
Language                                 : English
Encoded date                             : UTC 2015-08-22 06:49:17
Tagged date                              : UTC 2015-08-22 06:49:17

Other Files in this Torrent
[AS Infinity] Akame Ga Kill! 3.mp4
beta
Anime DDL+NZB mirror
Current Time: 21/06/2024 08:48



About/FAQs

Discord