File Size87.56 MB (91,811,033 bytes)
DownloadAnonFiles | ClickNUpload | DropAPK | Free | MultiUp
  • BdUpload
  • DownAce
  • Fichier
  • FileCloud
  • Filerio
  • FilesCdn
  • IndiShare
  • Kbagi
  • Turbobit
  • UpToBox
  • Uppit
| SolidFiles | ZippyShare
HashesCRC32: 4575242D, MD5: B1DEE03549B843B7C546363A15648A54, SHA1: 9BF345613DB701FFCC9943B0F8321F8D08096A5B, SHA256: 47CC6C19535343BDF97E46987D4D152CCC98132C976298FC52E7FBD1E8D9098E, ED2K: 6C29989951ADA077D5C683C069EB3263
Screenshots
screenshotscreenshotscreenshotscreenshotscreenshot
Additional Info
General
Complete name                            : [AS Infinity] Akame Ga Kill! 24.mp4
Format                                   : MPEG-4
Format profile                           : Base Media
Codec ID                                 : isom (isom)
File size                                : 87.6 MiB
Duration                                 : 23 min 40 s
Overall bit rate mode                    : Variable
Overall bit rate                         : 517 kb/s
Encoded date                             : UTC 2016-02-21 06:32:01
Tagged date                              : UTC 2016-02-21 06:32:01

Video
ID                                       : 1
Format                                   : AVC
Format/Info                              : Advanced Video Codec
Format profile                           : High@L4
Format settings                          : CABAC / 8 Ref Frames
Format settings, CABAC                   : Yes
Format settings, ReFrames                : 8 frames
Codec ID                                 : avc1
Codec ID/Info                            : Advanced Video Coding
Duration                                 : 23 min 39 s
Bit rate                                 : 450 kb/s
Maximum bit rate                         : 2 243 kb/s
Width                                    : 1 280 pixels
Height                                   : 720 pixels
Display aspect ratio                     : 16:9
Frame rate mode                          : Constant
Frame rate                               : 23.976 (24000/1001) FPS
Color space                              : YUV
Chroma subsampling                       : 4:2:0
Bit depth                                : 8 bits
Scan type                                : Progressive
Bits/(Pixel*Frame)                       : 0.020
Stream size                              : 76.2 MiB (87%)
Writing library                          : x264 core 104 r1683 62997d6
Encoding settings                        : cabac=1 / ref=8 / deblock=1:1:2 / analyse=0x3:0x133 / me=umh / subme=9 / psy=1 / psy_rd=0.80:0.00 / mixed_ref=1 / me_range=32 / chroma_me=1 / trellis=2 / 8x8dct=1 / cqm=0 / deadzone=21,11 / fast_pskip=0 / chroma_qp_offset=-2 / threads=18 / sliced_threads=0 / nr=0 / decimate=1 / interlaced=0 / constrained_intra=0 / bframes=8 / b_pyramid=2 / b_adapt=2 / b_bias=0 / direct=3 / weightb=1 / open_gop=0 / weightp=2 / keyint=250 / keyint_min=23 / scenecut=45 / intra_refresh=0 / rc=2pass / mbtree=0 / bitrate=450 / ratetol=1.0 / qcomp=0.60 / qpmin=10 / qpmax=51 / qpstep=4 / cplxblur=20.0 / qblur=0.5 / ip_ratio=1.40 / pb_ratio=1.30 / aq=0
Encoded date                             : UTC 2016-02-20 04:31:45
Tagged date                              : UTC 2016-02-21 06:32:01
Codec configuration box                  : avcC

Audio
ID                                       : 2
Format                                   : AAC LC SBR
Format/Info                              : Advanced Audio Codec Low Complexity with Spectral Band Replication
Commercial name                          : HE-AAC
Format settings                          : Explicit
Codec ID                                 : mp4a-40-2
Duration                                 : 23 min 40 s
Bit rate mode                            : Variable
Bit rate                                 : 64.0 kb/s
Maximum bit rate                         : 72.0 kb/s
Channel(s)                               : 2 channels
Channel layout                           : L R
Sampling rate                            : 48.0 kHz
Frame rate                               : 23.438 FPS (2048 SPF)
Compression mode                         : Lossy
Stream size                              : 10.8 MiB (12%)
Encoded date                             : UTC 2016-02-21 06:30:28
Tagged date                              : UTC 2016-02-21 06:32:01

Other Files in this Torrent
[AS Infinity] Akame Ga Kill! 24.mp4
beta
Anime DDL+NZB mirror
Current Time: 17/06/2024 08:18



About/FAQs

Discord