File Size84.15 MB (88,233,050 bytes)
DownloadAnonFiles | ClickNUpload | DropAPK | Free | MultiUp
  • BdUpload
  • DownAce
  • Fichier
  • FileCloud
  • Filerio
  • FilesCdn
  • IndiShare
  • Kbagi
  • Turbobit
  • UpToBox
  • Uppit
| SolidFiles | ZippyShare
HashesCRC32: 165B8DD5, MD5: C078BEAED9C91B1B916EA7D8789F736C, SHA1: B6C97D278A976DF97EFF271BF3380347BDFFE6DD, SHA256: 117D0A6E7783DBD3A519C864D19E7734877BD23A757F4F01EE388C8EAADEF7A5, ED2K: BF3C8AEE8EFA350947E237AE7FF563C4
Screenshots
screenshotscreenshotscreenshotscreenshotscreenshot
Additional Info
General
Complete name                            : [AS Infinity] Akame Ga Kill! 13.mp4
Format                                   : MPEG-4
Format profile                           : Base Media
Codec ID                                 : isom (isom)
File size                                : 84.1 MiB
Duration                                 : 23 min 39 s
Overall bit rate mode                    : Variable
Overall bit rate                         : 497 kb/s
Encoded date                             : UTC 2015-11-15 06:47:01
Tagged date                              : UTC 2015-11-15 06:47:01

Video
ID                                       : 1
Format                                   : AVC
Format/Info                              : Advanced Video Codec
Format profile                           : High@L4
Format settings                          : CABAC / 8 Ref Frames
Format settings, CABAC                   : Yes
Format settings, ReFrames                : 8 frames
Codec ID                                 : avc1
Codec ID/Info                            : Advanced Video Coding
Duration                                 : 23 min 39 s
Bit rate                                 : 430 kb/s
Maximum bit rate                         : 1 884 kb/s
Width                                    : 1 280 pixels
Height                                   : 720 pixels
Display aspect ratio                     : 16:9
Frame rate mode                          : Constant
Frame rate                               : 23.976 (24000/1001) FPS
Color space                              : YUV
Chroma subsampling                       : 4:2:0
Bit depth                                : 8 bits
Scan type                                : Progressive
Bits/(Pixel*Frame)                       : 0.019
Stream size                              : 72.8 MiB (87%)
Writing library                          : x264 core 104 r1683 62997d6
Encoding settings                        : cabac=1 / ref=8 / deblock=1:1:2 / analyse=0x3:0x133 / me=umh / subme=9 / psy=1 / psy_rd=0.80:0.00 / mixed_ref=1 / me_range=32 / chroma_me=1 / trellis=2 / 8x8dct=1 / cqm=0 / deadzone=21,11 / fast_pskip=0 / chroma_qp_offset=-2 / threads=18 / sliced_threads=0 / nr=0 / decimate=1 / interlaced=0 / constrained_intra=0 / bframes=8 / b_pyramid=2 / b_adapt=2 / b_bias=0 / direct=3 / weightb=1 / open_gop=0 / weightp=2 / keyint=250 / keyint_min=23 / scenecut=45 / intra_refresh=0 / rc=2pass / mbtree=0 / bitrate=430 / ratetol=1.0 / qcomp=0.60 / qpmin=10 / qpmax=51 / qpstep=4 / cplxblur=20.0 / qblur=0.5 / ip_ratio=1.40 / pb_ratio=1.30 / aq=0
Encoded date                             : UTC 2015-11-14 00:49:19
Tagged date                              : UTC 2015-11-15 06:47:05
Codec configuration box                  : avcC

Audio
ID                                       : 2
Format                                   : AAC LC SBR
Format/Info                              : Advanced Audio Codec Low Complexity with Spectral Band Replication
Commercial name                          : HE-AAC
Format settings                          : Explicit
Codec ID                                 : mp4a-40-2
Duration                                 : 23 min 39 s
Bit rate mode                            : Variable
Bit rate                                 : 64.0 kb/s
Maximum bit rate                         : 74.2 kb/s
Channel(s)                               : 2 channels
Channel layout                           : L R
Sampling rate                            : 48.0 kHz
Frame rate                               : 23.438 FPS (2048 SPF)
Compression mode                         : Lossy
Stream size                              : 10.8 MiB (13%)
Encoded date                             : UTC 2015-11-15 06:46:07
Tagged date                              : UTC 2015-11-15 06:47:05

Other Files in this Torrent
[AS Infinity] Akame Ga Kill! 13.mp4
beta
Anime DDL+NZB mirror
Current Time: 21/06/2024 07:10



About/FAQs

Discord