[Impatience] Bungou Stray Dogs - 33 [720p][7A522937].mkv


File Size244.0 MB (255,829,848 bytes)
DownloadClickNUpload | Jheberg | MultiUp
  • BdUpload
  • DownAce
  • Fichier
  • FileCloud
  • Filerio
  • FilesCdn
  • IndiShare
  • Kbagi
  • Turbobit
  • UpToBox
  • Uppit
| OpenLoad | Sendspace | SolidFiles | ZippyShare
HashesCRC32: 7A522937, MD5: D50C63673F0A33BF7FC3251B8347FDED, SHA1: AE30829B872C816FE66E40571E2F246F15A6DE8C, SHA256: A5DEA5074B883FA5FE8F8A0EBE5A243366DD8617D3678A12422B6CEC7546050F, ED2K: 5FBE2F2770FD36C91B60404503A0EB53
Screenshots
screenshotscreenshotscreenshotscreenshotscreenshot
SubtitlesAll Attachments | eng [ASS]
Additional Info
General
Unique ID                                : 204156712974269478780027039690022769454 (0x999727167614E14766805F12FF14D32E)
Complete name                            : [Impatience] Bungou Stray Dogs - 33 [720p][7A522937].mkv
Format                                   : Matroska
Format version                           : Version 4
File size                                : 244 MiB
Duration                                 : 23 min 40 s
Overall bit rate                         : 1 441 kb/s
Encoded date                             : UTC 2019-06-01 15:06:56
Writing application                      : mkvmerge v27.0.0 ('Metropolis') 64-bit
Writing library                          : libebml v1.3.6 + libmatroska v1.4.9
Attachments                              : AveriaSerif-Bold.ttf / Cabin-PL-Bold.ttf / Cabin-PL-BoldItalic.ttf / FOTComicReggaeStdStripped-Bold_0.otf / KGShadowOfTheDay.ttf / Lato-Reg_0.ttf / PER_____.TTF / PERB____.TTF / POORICH.TTF / REFSAN.TTF / 9SALERNOMI J.TTF / OpenSans-Semibold.ttf

Video
ID                                       : 3
Format                                   : AVC
Format/Info                              : Advanced Video Codec
Format profile                           : High 10@L5
Format settings                          : CABAC / 16 Ref Frames
Format settings, CABAC                   : Yes
Format settings, ReFrames                : 16 frames
Codec ID                                 : V_MPEG4/ISO/AVC
Duration                                 : 23 min 39 s
Bit rate                                 : 1 300 kb/s
Width                                    : 1 280 pixels
Height                                   : 720 pixels
Display aspect ratio                     : 16:9
Frame rate mode                          : Constant
Frame rate                               : 23.976 (24000/1001) FPS
Color space                              : YUV
Chroma subsampling                       : 4:2:0
Bit depth                                : 10 bits
Scan type                                : Progressive
Bits/(Pixel*Frame)                       : 0.059
Stream size                              : 220 MiB (90%)
Writing library                          : x264 core 157 r2935 545de2f
Encoding settings                        : cabac=1 / ref=16 / deblock=1:1:1 / analyse=0x3:0x133 / me=umh / subme=10 / psy=1 / psy_rd=0.40:0.00 / mixed_ref=1 / me_range=24 / chroma_me=1 / trellis=2 / 8x8dct=1 / cqm=0 / deadzone=21,11 / fast_pskip=0 / chroma_qp_offset=-3 / threads=6 / lookahead_threads=1 / sliced_threads=0 / nr=0 / decimate=1 / interlaced=0 / bluray_compat=0 / constrained_intra=0 / bframes=10 / b_pyramid=2 / b_adapt=2 / b_bias=0 / direct=1 / weightb=1 / open_gop=0 / weightp=2 / keyint=240 / keyint_min=23 / scenecut=40 / intra_refresh=0 / rc_lookahead=60 / rc=crf / mbtree=1 / crf=16.0 / qcomp=0.60 / qpmin=0 / qpmax=69 / qpstep=4 / ip_ratio=1.40 / aq=1:0.60
Language                                 : English
Default                                  : Yes
Forced                                   : No
Color range                              : Limited
Matrix coefficients                      : BT.709

Audio
ID                                       : 2
Format                                   : AAC LC
Format/Info                              : Advanced Audio Codec Low Complexity
Codec ID                                 : A_AAC-2
Duration                                 : 23 min 40 s
Bit rate                                 : 128 kb/s
Channel(s)                               : 2 channels
Channel layout                           : L R
Sampling rate                            : 44.1 kHz
Frame rate                               : 43.066 FPS (1024 SPF)
Compression mode                         : Lossy
Stream size                              : 21.7 MiB (9%)
Language                                 : Japanese
Default                                  : Yes
Forced                                   : No

Text
ID                                       : 1
Format                                   : ASS
Codec ID                                 : S_TEXT/ASS
Codec ID/Info                            : Advanced Sub Station Alpha
Duration                                 : 23 min 35 s
Bit rate                                 : 4 024 b/s
Count of elements                        : 4124
Compression mode                         : Lossless
Stream size                              : 695 KiB (0%)
Language                                 : English
Default                                  : Yes
Forced                                   : Yes

Menu
00:00:00.000                             : :Intro
00:02:33.028                             : :OP
00:04:02.993                             : :Part A
00:09:27.066                             : :Part B
00:22:07.034                             : :ED

Other Files in this Torrent
[Impatience] Bungou Stray Dogs - 33 [720p][7A522937].mkv
beta
Anime DDL+NZB mirror
Current Time: 27/09/2020 07:02



About/FAQs