[Impatience] Bungou Stray Dogs - 29 [720p][462F4E5A].mkv


File Size204.7 MB (214,692,209 bytes)
DownloadClickNUpload | Jheberg | MultiUp
  • BdUpload
  • DownAce
  • Fichier
  • FileCloud
  • Filerio
  • FilesCdn
  • IndiShare
  • Kbagi
  • Turbobit
  • UpToBox
  • Uppit
| OpenLoad | Sendspace | SolidFiles | ZippyShare
HashesCRC32: 462F4E5A, MD5: 64A9AF8369D8C6C1D2A2CC7241937DCB, SHA1: BFE0BFD9B5419DCDE8A20C00376C873B6D324C4C, SHA256: 46A3242DB9E7553EAA4096AE17EB77700B1DB86FD3F70642AFD0CEF0009A69EF, ED2K: 7F1570F037BD709D8934AE0103DFF756
Screenshots
screenshotscreenshotscreenshotscreenshotscreenshot
SubtitlesAll Attachments | eng [ASS]
Additional Info
General
Unique ID                                : 248705464494159472673259177693645652176 (0xBB1AEE1DAB1C1B9806A73F976F5840D0)
Complete name                            : [Impatience] Bungou Stray Dogs - 29 [720p][462F4E5A].mkv
Format                                   : Matroska
Format version                           : Version 4
File size                                : 205 MiB
Duration                                 : 23 min 40 s
Overall bit rate                         : 1 209 kb/s
Encoded date                             : UTC 2019-05-04 12:31:50
Writing application                      : mkvmerge v27.0.0 ('Metropolis') 64-bit
Writing library                          : libebml v1.3.6 + libmatroska v1.4.9
Attachments                              : Cabin-PL-BoldItalic.ttf / Lato-Reg_0.ttf / PALMSPRN_0.TTF / PER_____.TTF / PERB____.TTF / POORICH.TTF / 9SALERNOMI J.TTF / AveriaSerif-Bold.ttf / Cabin-PL-Bold.ttf / OpenSans-Semibold.ttf

Video
ID                                       : 2
Format                                   : AVC
Format/Info                              : Advanced Video Codec
Format profile                           : High 10@L5
Format settings                          : CABAC / 16 Ref Frames
Format settings, CABAC                   : Yes
Format settings, ReFrames                : 16 frames
Codec ID                                 : V_MPEG4/ISO/AVC
Duration                                 : 23 min 40 s
Bit rate                                 : 1 073 kb/s
Width                                    : 1 280 pixels
Height                                   : 720 pixels
Display aspect ratio                     : 16:9
Frame rate mode                          : Constant
Frame rate                               : 23.976 (24000/1001) FPS
Color space                              : YUV
Chroma subsampling                       : 4:2:0
Bit depth                                : 10 bits
Scan type                                : Progressive
Bits/(Pixel*Frame)                       : 0.049
Stream size                              : 182 MiB (89%)
Writing library                          : x264 core 157 r2935 545de2f
Encoding settings                        : cabac=1 / ref=16 / deblock=1:1:1 / analyse=0x3:0x133 / me=umh / subme=10 / psy=1 / psy_rd=0.40:0.00 / mixed_ref=1 / me_range=24 / chroma_me=1 / trellis=2 / 8x8dct=1 / cqm=0 / deadzone=21,11 / fast_pskip=0 / chroma_qp_offset=-3 / threads=6 / lookahead_threads=1 / sliced_threads=0 / nr=0 / decimate=1 / interlaced=0 / bluray_compat=0 / constrained_intra=0 / bframes=10 / b_pyramid=2 / b_adapt=2 / b_bias=0 / direct=1 / weightb=1 / open_gop=0 / weightp=2 / keyint=240 / keyint_min=23 / scenecut=40 / intra_refresh=0 / rc_lookahead=60 / rc=crf / mbtree=1 / crf=16.0 / qcomp=0.60 / qpmin=0 / qpmax=69 / qpstep=4 / ip_ratio=1.40 / aq=1:0.60
Language                                 : Japanese
Default                                  : Yes
Forced                                   : No
Color range                              : Limited
Matrix coefficients                      : BT.709

Audio
ID                                       : 3
Format                                   : AAC LC
Format/Info                              : Advanced Audio Codec Low Complexity
Codec ID                                 : A_AAC-2
Duration                                 : 23 min 40 s
Bit rate                                 : 128 kb/s
Channel(s)                               : 2 channels
Channel layout                           : L R
Sampling rate                            : 44.1 kHz
Frame rate                               : 43.066 FPS (1024 SPF)
Compression mode                         : Lossy
Stream size                              : 21.7 MiB (11%)
Language                                 : Japanese
Default                                  : Yes
Forced                                   : No

Text
ID                                       : 1
Format                                   : ASS
Codec ID                                 : S_TEXT/ASS
Codec ID/Info                            : Advanced Sub Station Alpha
Duration                                 : 23 min 36 s
Bit rate                                 : 1 189 b/s
Count of elements                        : 1498
Compression mode                         : Lossless
Stream size                              : 206 KiB (0%)
Language                                 : English
Default                                  : Yes
Forced                                   : Yes

Menu
00:00:00.000                             : :Intro
00:01:09.987                             : :OP
00:02:40.035                             : :Part A
00:10:10.026                             : :Part B
00:22:07.034                             : :ED

Other Files in this Torrent
[Impatience] Bungou Stray Dogs - 29 [720p][462F4E5A].mkv
beta
Anime DDL+NZB mirror
Current Time: 27/09/2020 06:42



About/FAQs