[Impatience] Bungou Stray Dogs - 27 [720p][5DB34AED].mkv


File Size296.8 MB (311,197,042 bytes)
DownloadClickNUpload | Jheberg | MultiUp
  • BdUpload
  • DownAce
  • Fichier
  • FileCloud
  • Filerio
  • FilesCdn
  • IndiShare
  • Kbagi
  • Turbobit
  • UpToBox
  • Uppit
| OpenLoad | Sendspace | SolidFiles | ZippyShare
HashesCRC32: 5DB34AED, MD5: 36F1CA33768C7E0B58CB7160E11F479F, SHA1: 86328CE223B4B39124DC4E35E50B0330BFF4EC49, SHA256: 22166E6DF8168082362AF479A264E0495294FB55C3DB4E7D343CD8C59636ABCA, ED2K: 71058515F9CF510087FABE2B5E9E1F42
Screenshots
screenshotscreenshotscreenshotscreenshotscreenshot
SubtitlesAll Attachments | eng [ASS]
Additional Info
General
Unique ID                                : 295422048608453235114750550986462898796 (0xDE40378B000AA9FEBD8C89C61258AA6C)
Complete name                            : [Impatience] Bungou Stray Dogs - 27 [720p][5DB34AED].mkv
Format                                   : Matroska
Format version                           : Version 4
File size                                : 297 MiB
Duration                                 : 23 min 40 s
Overall bit rate                         : 1 753 kb/s
Encoded date                             : UTC 2019-07-12 23:20:14
Writing application                      : mkvmerge v27.0.0 ('Metropolis') 64-bit
Writing library                          : libebml v1.3.6 + libmatroska v1.4.9
Attachments                              : PER_____.TTF / PERB____.TTF / POORICH.TTF / 9SALERNOMI J.TTF / ANTQUAB.TTF / AveriaSerif-Bold.ttf / Cabin-PL-Bold.ttf / Cabin-PL-BoldItalic.ttf / Lato-Reg_0.ttf

Video
ID                                       : 1
Format                                   : AVC
Format/Info                              : Advanced Video Codec
Format profile                           : High 10@L5
Format settings                          : CABAC / 16 Ref Frames
Format settings, CABAC                   : Yes
Format settings, ReFrames                : 16 frames
Codec ID                                 : V_MPEG4/ISO/AVC
Duration                                 : 23 min 40 s
Bit rate                                 : 1 615 kb/s
Width                                    : 1 280 pixels
Height                                   : 720 pixels
Display aspect ratio                     : 16:9
Frame rate mode                          : Constant
Frame rate                               : 23.976 (24000/1001) FPS
Color space                              : YUV
Chroma subsampling                       : 4:2:0
Bit depth                                : 10 bits
Scan type                                : Progressive
Bits/(Pixel*Frame)                       : 0.073
Stream size                              : 273 MiB (92%)
Writing library                          : x264 core 157 r2935 545de2f
Encoding settings                        : cabac=1 / ref=16 / deblock=1:1:1 / analyse=0x3:0x133 / me=umh / subme=10 / psy=1 / psy_rd=0.40:0.00 / mixed_ref=1 / me_range=24 / chroma_me=1 / trellis=2 / 8x8dct=1 / cqm=0 / deadzone=21,11 / fast_pskip=0 / chroma_qp_offset=-3 / threads=6 / lookahead_threads=1 / sliced_threads=0 / nr=0 / decimate=1 / interlaced=0 / bluray_compat=0 / constrained_intra=0 / bframes=10 / b_pyramid=2 / b_adapt=2 / b_bias=0 / direct=1 / weightb=1 / open_gop=0 / weightp=2 / keyint=240 / keyint_min=23 / scenecut=40 / intra_refresh=0 / rc_lookahead=60 / rc=crf / mbtree=1 / crf=16.0 / qcomp=0.60 / qpmin=0 / qpmax=69 / qpstep=4 / ip_ratio=1.40 / aq=1:0.60
Language                                 : English
Default                                  : Yes
Forced                                   : No
Color range                              : Limited
Matrix coefficients                      : BT.709

Audio
ID                                       : 2
Format                                   : AAC LC
Format/Info                              : Advanced Audio Codec Low Complexity
Codec ID                                 : A_AAC-2
Duration                                 : 23 min 40 s
Bit rate                                 : 128 kb/s
Channel(s)                               : 2 channels
Channel layout                           : L R
Sampling rate                            : 44.1 kHz
Frame rate                               : 43.066 FPS (1024 SPF)
Compression mode                         : Lossy
Stream size                              : 21.7 MiB (7%)
Language                                 : Japanese
Default                                  : Yes
Forced                                   : No

Text
ID                                       : 3
Format                                   : ASS
Codec ID                                 : S_TEXT/ASS
Codec ID/Info                            : Advanced Sub Station Alpha
Duration                                 : 23 min 36 s
Bit rate                                 : 2 651 b/s
Count of elements                        : 3485
Compression mode                         : Lossless
Stream size                              : 459 KiB (0%)
Language                                 : English
Default                                  : Yes
Forced                                   : Yes

Menu
00:00:00.000                             : :Intro
00:04:39.946                             : :OP
00:06:09.995                             : :Part A
00:10:17.033                             : :Part B

Other Files in this Torrent
[Impatience] Bungou Stray Dogs - 27 [720p][5DB34AED].mkv
beta
Anime DDL+NZB mirror
Current Time: 27/09/2020 07:38



About/FAQs