File Size320.7 MB (336,253,049 bytes)
DownloadAnonFiles | ClickNUpload | DropAPK | Free | MultiUp
  • BdUpload
  • DownAce
  • Fichier
  • FileCloud
  • Filerio
  • FilesCdn
  • IndiShare
  • Kbagi
  • Turbobit
  • UpToBox
  • Uppit
| SolidFiles | ZippyShare
HashesCRC32: 8055DE2E, MD5: DB5F52A2D7C813932D38937359700EA0, SHA1: 5539877261F3430F07CF670E52A44EFA8F03EAED, SHA256: 0482EA3DE6E028D0CE013D43A59F75958ED8702FEA7EE197F968893249EE5725, ED2K: F3FD89CD8C035E106F67D945D4CC8413
Screenshots
screenshotscreenshotscreenshotscreenshotscreenshot
SubtitlesAll Attachments | English [eng, ASS]
Additional Info
General
Unique ID                                : 13402444657040830364180353430203327321 (0xA153789FD3F16440D93BAB29A3AE359)
Complete name                            : [HR] Hyouka S01E18 [8055DE2E].mkv
Format                                   : Matroska
Format version                           : Version 4
File size                                : 321 MiB
Duration                                 : 25 min 41 s
Overall bit rate                         : 1 746 kb/s
Movie name                               : 氷菓 第9巻
Encoded date                             : UTC 2021-03-15 01:17:38
Writing application                      : mkvmerge v52.0.0 ('Secret For The Mad') 64-bit
Writing library                          : libebml v1.4.1 + libmatroska v1.6.2 / Lavf57.83.100
Attachments                              : A-OTF-GothicMB101Pr5-Light.otf / ACaslonPro-Bold_1.otf / ACaslonPro-Bold.otf / akarinop.ttf / arialbd.ttf / BAKESBR.TTF / Bolide-Regular.ttf / Brianne_s_hand.ttf / BRIOMN.TTF / brush-hyouka_0.ttf / brush-hyouka.ttf / BrushType_SemiBoldA_(wwww.font-cat.com).ttf / Bubblegum.ttf / BurstMyBubble.ttf / CaxtonStd-Bold.otf / CaxtonStd-BoldItalic.otf / CaxtonStd-Book.otf / CENTURY.TTF / classhyouka_0.ttf / classhyouka.ttf / Classics-Hyouka.ttf / corbel.ttf / corbelb.ttf / cry7.ttf / dameji.TTF / DFHsr4.ttc / DFKoin-W4-CP.ttf / DFRuLei-W5-NatsuKise_0.ttf / DFRuLei-W5-NatsuKise.ttf / F5AJXGYK_0.TTF / F5AJXI5D.TTF / F5AJXKED.TTF / fansubBlock.ttf / fvgranada-regular-webfont.ttf / garr65w.ttf / GOTHIC.TTF / Hyouka Italic.ttf / Hyouka Regular.ttf / hyouka-brush2.ttf / hyouka-eroded.ttf / IwaMinPro-Md-Kami_1.ttf / IwaMinPro-Md-Kami.ttf / IwaOMinPro-Bd-Fate_0.ttf / IwaOMinPro-Bd-Fate_1.ttf / IwaOMinPro-Bd-Fate.ttf / IwaOMinPro-Hv-Fate_0.ttf / IwaOMinPro-Hv-Fate_1.ttf / IwaOMinPro-Hv-Fate.ttf / JandaCurlygirlChunky.ttf / Jenkins v2.0.ttf / Jennifers Hand Writing_0.ttf / Jennifers Hand Writing.ttf / Jerry_B4s_handwriting_0.ttf / Jerry_B4s_handwriting.ttf / LATO-REG.TTF / LondonTwo.ttf / maya.ttf / MyriadPro-Black.otf / Old_Rubber_Stamp.ttf / PAPEJE.TTF / PIXEARG.TTF / Samurai-Gosick.ttf / Sansation_Regular.ttf / title-berserk.ttf / Titles-KokoroConnect.ttf / URLCANTMUXANDSINDALFCANTENCODE_0.ttf / verdana.ttf / verdanab.ttf

Video
ID                                       : 1
Format                                   : HEVC
Format/Info                              : High Efficiency Video Coding
Format profile                           : Main 10@L4@Main
Codec ID                                 : V_MPEGH/ISO/HEVC
Duration                                 : 25 min 41 s
Bit rate                                 : 1 488 kb/s
Width                                    : 1 920 pixels
Height                                   : 1 080 pixels
Display aspect ratio                     : 16:9
Frame rate mode                          : Constant
Frame rate                               : 23.976 (24000/1001) FPS
Color space                              : YUV
Chroma subsampling                       : 4:2:0
Bit depth                                : 10 bits
Bits/(Pixel*Frame)                       : 0.030
Stream size                              : 273 MiB (85%)
Writing library                          : x265 3.4+70-90fa80a85:[DJATOM's Mod][Windows][GCC 10.2.1][64 bit] 10bit
Encoding settings                        : cpuid=1111039 / frame-threads=4 / numa-pools=16 / wpp / no-pmode / no-pme / no-psnr / no-ssim / log-level=2 / input-csp=1 / input-res=1920x1080 / interlace=0 / total-frames=36948 / level-idc=0 / high-tier=1 / uhd-bd=0 / ref=3 / no-allow-non-conformance / no-repeat-headers / annexb / no-aud / no-hrd / info / hash=0 / no-temporal-layers / open-gop / min-keyint=23 / keyint=250 / gop-lookahead=0 / bframes=4 / b-adapt=2 / b-pyramid / bframe-bias=0 / rc-lookahead=20 / lookahead-slices=6 / scenecut=40 / hist-scenecut=0 / radl=0 / no-splice / no-intra-refresh / ctu=64 / min-cu-size=8 / no-rect / no-amp / max-tu-size=32 / tu-inter-depth=1 / tu-intra-depth=1 / limit-tu=0 / rdoq-level=0 / dynamic-rd=0.00 / no-ssim-rd / signhide / no-tskip / nr-intra=0 / nr-inter=0 / no-constrained-intra / strong-intra-smoothing / max-merge=3 / limit-refs=3 / no-limit-modes / me=1 / subme=2 / merange=57 / temporal-mvp / no-frame-dup / no-hme / weightp / no-weightb / no-analyze-src-pics / deblock=0:0 / sao / no-sao-non-deblock / rd=3 / selective-sao=4 / early-skip / rskip / no-fast-intra / no-tskip-fast / no-cu-lossless / b-intra / no-splitrd-skip / rdpenalty=0 / psy-rd=2.00 / psy-rdoq=0.00 / no-rd-refine / no-lossless / cbqpoffs=0 / crqpoffs=0 / rc=crf / crf=20.0 / qcomp=0.60 / qpstep=4 / stats-write=0 / stats-read=0 / ipratio=1.40 / pbratio=1.30 / aq-mode=2 / aq-strength=1.00 / cutree / zone-count=0 / no-strict-cbr / qg-size=32 / no-rc-grain / qpmax=69 / qpmin=0 / no-const-vbv / sar=0 / overscan=0 / videoformat=5 / range=0 / colorprim=2 / transfer=2 / colormatrix=2 / chromaloc=0 / display-window=0 / cll=0,0 / min-luma=0 / max-luma=1023 / log2-max-poc-lsb=8 / vui-timing-info / vui-hrd-info / slices=1 / no-opt-qp-pps / no-opt-ref-list-length-pps / no-multi-pass-opt-rps / scenecut-bias=0.05 / hist-threshold=0.01 / no-opt-cu-delta-qp / no-aq-motion / no-hdr10 / no-hdr10-opt / no-dhdr10-opt / no-idr-recovery-sei / analysis-reuse-level=0 / analysis-save-reuse-level=0 / analysis-load-reuse-level=0 / scale-factor=0 / refine-intra=0 / refine-inter=0 / refine-mv=1 / refine-ctu-distortion=0 / no-limit-sao / ctu-info=0 / no-lowpass-dct / refine-analysis-type=0 / copy-pic=1 / max-ausize-factor=1.0 / no-dynamic-refine / no-single-sei / no-hevc-aq / no-svt / no-field / qp-adaptation-range=1.00 / no-scenecut-aware-qpconformance-window-offsets / right=0 / bottom=0 / decoder-max-rate=0 / no-vbv-live-multi-pass
Default                                  : Yes
Forced                                   : No

Audio
ID                                       : 2
Format                                   : Opus
Codec ID                                 : A_OPUS
Duration                                 : 25 min 41 s
Bit rate                                 : 127 kb/s
Channel(s)                               : 2 channels
Channel layout                           : L R
Sampling rate                            : 48.0 kHz
Frame rate                               : 50.000 FPS (960 SPF)
Compression mode                         : Lossy
Stream size                              : 23.3 MiB (7%)
Writing library                          : Lavc58.115.102 libopus
Language                                 : Japanese
Default                                  : Yes
Forced                                   : No

Text
ID                                       : 3
Format                                   : ASS
Codec ID                                 : S_TEXT/ASS
Codec ID/Info                            : Advanced Sub Station Alpha
Duration                                 : 25 min 33 s
Bit rate                                 : 340 b/s
Count of elements                        : 756
Compression mode                         : Lossless
Stream size                              : 63.7 KiB (0%)
Title                                    : English
Language                                 : English
Default                                  : Yes
Forced                                   : No

Menu
00:00:00.000                             : en:Chapter 12
00:01:04.978                             : en:Chapter 13
00:02:35.026                             : en:Chapter 14
00:07:29.612                             : en:Chapter 15
00:09:04.081                             : en:Chapter 16
00:10:27.039                             : en:Chapter 17
00:14:14.391                             : en:Chapter 18
00:16:02.082                             : en:Chapter 19
00:20:26.471                             : en:Chapter 20
00:24:00.018                             : en:Chapter 21
00:25:30.024                             : en:Chapter 22

Other Files in this Torrent
[HR] Hyouka S01E18 [8055DE2E].mkv
beta
Anime DDL+NZB mirror
Current Time: 19/09/2021 19:12



About/FAQs