File Size269.3 MB (282,344,824 bytes)
DownloadAnonFiles | ClickNUpload | DropAPK | Free | MultiUp
  • BdUpload
  • DownAce
  • Fichier
  • FileCloud
  • Filerio
  • FilesCdn
  • IndiShare
  • Kbagi
  • Turbobit
  • UpToBox
  • Uppit
| SolidFiles | ZippyShare
HashesCRC32: C14BF068, MD5: 8B6C59CE399AF5BE1AFBA24750FD9108, SHA1: 7356EDC7FB538028A13B88705D4DDA248D5DDD4D, SHA256: C250C8B42C053A5D8319D9A5A112FA30132C38608D316030094D2DA522DC1CED, ED2K: 7FF6D6D52528027C9F43FDABC9A56F52
Screenshots
screenshotscreenshotscreenshotscreenshotscreenshot
SubtitlesAll Attachments | English [eng, ASS]
Additional Info
General
Unique ID                                : 330101220068751526143506895621287176775 (0xF8572EB472ABADFF633F9DF5A1A1EA47)
Complete name                            : [HR] Hyouka S01E11 [C14BF068].mkv
Format                                   : Matroska
Format version                           : Version 4
File size                                : 269 MiB
Duration                                 : 25 min 43 s
Overall bit rate                         : 1 464 kb/s
Movie name                               : 氷菓 第6巻
Encoded date                             : UTC 2021-03-15 01:08:11
Writing application                      : mkvmerge v52.0.0 ('Secret For The Mad') 64-bit
Writing library                          : libebml v1.4.1 + libmatroska v1.6.2 / Lavf57.83.100
Attachments                              : A-OTF-GothicMB101Pr5-Light.otf / AppleGaramond.TTF / arialbd.ttf / BAKESBR.TTF / Bolide-Regular.ttf / BRIOMN.TTF / brush-hyouka_0.ttf / brush-hyouka.ttf / BrushType_SemiBoldA_(wwww.font-cat.com).ttf / BurstMyBubble.ttf / CaxtonStd-Bold.otf / CaxtonStd-BoldItalic.otf / CENTURY.TTF / classhyouka_0.ttf / classhyouka.ttf / Classics-Hyouka.ttf / corbel.ttf / corbelb.ttf / dameji.TTF / DFHsr4.ttc / DFKoin-W4-CP.ttf / dream orphanage rg.ttf / edosz.ttf / fansubBlock.ttf / GOTHIC.TTF / Hyouka Italic.ttf / Hyouka Regular.ttf / hyouka-brush2.ttf / hyouka-eroded.ttf / IwaMinPro-Md-Kami.ttf / IwaOMinPro-Bd-Fate_0.ttf / IwaOMinPro-Bd-Fate.ttf / IwaOMinPro-Hv-Fate.ttf / JandaCurlygirlChunky.ttf / JandaManateeSolid.ttf / Jenkins v2.0.ttf / JennaSue.ttf / Jennifers Hand Writing.ttf / Jerry_B4s_handwriting_0.ttf / Jerry_B4s_handwriting.ttf / maya.ttf / NewBaskerville.ttf / PAPEJE.TTF / pf_tempesta_seven.ttf / PIXEARG.TTF / Rolina.ttf / Samurai-Gosick.ttf / Sansation_Regular.ttf / second breakfast.ttf / SelenesHandwriting1.ttf / Titles-KokoroConnect.ttf / URLCANTMUXANDSINDALFCANTENCODE_0.ttf / verdana.ttf

Video
ID                                       : 1
Format                                   : HEVC
Format/Info                              : High Efficiency Video Coding
Format profile                           : Main 10@L4@Main
Codec ID                                 : V_MPEGH/ISO/HEVC
Duration                                 : 25 min 43 s
Bit rate                                 : 1 230 kb/s
Width                                    : 1 920 pixels
Height                                   : 1 080 pixels
Display aspect ratio                     : 16:9
Frame rate mode                          : Constant
Frame rate                               : 23.976 (24000/1001) FPS
Color space                              : YUV
Chroma subsampling                       : 4:2:0
Bit depth                                : 10 bits
Bits/(Pixel*Frame)                       : 0.025
Stream size                              : 226 MiB (84%)
Writing library                          : x265 3.4+70-90fa80a85:[DJATOM's Mod][Windows][GCC 10.2.1][64 bit] 10bit
Encoding settings                        : cpuid=1111039 / frame-threads=4 / numa-pools=16 / wpp / no-pmode / no-pme / no-psnr / no-ssim / log-level=2 / input-csp=1 / input-res=1920x1080 / interlace=0 / total-frames=36996 / level-idc=0 / high-tier=1 / uhd-bd=0 / ref=3 / no-allow-non-conformance / no-repeat-headers / annexb / no-aud / no-hrd / info / hash=0 / no-temporal-layers / open-gop / min-keyint=23 / keyint=250 / gop-lookahead=0 / bframes=4 / b-adapt=2 / b-pyramid / bframe-bias=0 / rc-lookahead=20 / lookahead-slices=6 / scenecut=40 / hist-scenecut=0 / radl=0 / no-splice / no-intra-refresh / ctu=64 / min-cu-size=8 / no-rect / no-amp / max-tu-size=32 / tu-inter-depth=1 / tu-intra-depth=1 / limit-tu=0 / rdoq-level=0 / dynamic-rd=0.00 / no-ssim-rd / signhide / no-tskip / nr-intra=0 / nr-inter=0 / no-constrained-intra / strong-intra-smoothing / max-merge=3 / limit-refs=3 / no-limit-modes / me=1 / subme=2 / merange=57 / temporal-mvp / no-frame-dup / no-hme / weightp / no-weightb / no-analyze-src-pics / deblock=0:0 / sao / no-sao-non-deblock / rd=3 / selective-sao=4 / early-skip / rskip / no-fast-intra / no-tskip-fast / no-cu-lossless / b-intra / no-splitrd-skip / rdpenalty=0 / psy-rd=2.00 / psy-rdoq=0.00 / no-rd-refine / no-lossless / cbqpoffs=0 / crqpoffs=0 / rc=crf / crf=20.0 / qcomp=0.60 / qpstep=4 / stats-write=0 / stats-read=0 / ipratio=1.40 / pbratio=1.30 / aq-mode=2 / aq-strength=1.00 / cutree / zone-count=0 / no-strict-cbr / qg-size=32 / no-rc-grain / qpmax=69 / qpmin=0 / no-const-vbv / sar=0 / overscan=0 / videoformat=5 / range=0 / colorprim=2 / transfer=2 / colormatrix=2 / chromaloc=0 / display-window=0 / cll=0,0 / min-luma=0 / max-luma=1023 / log2-max-poc-lsb=8 / vui-timing-info / vui-hrd-info / slices=1 / no-opt-qp-pps / no-opt-ref-list-length-pps / no-multi-pass-opt-rps / scenecut-bias=0.05 / hist-threshold=0.01 / no-opt-cu-delta-qp / no-aq-motion / no-hdr10 / no-hdr10-opt / no-dhdr10-opt / no-idr-recovery-sei / analysis-reuse-level=0 / analysis-save-reuse-level=0 / analysis-load-reuse-level=0 / scale-factor=0 / refine-intra=0 / refine-inter=0 / refine-mv=1 / refine-ctu-distortion=0 / no-limit-sao / ctu-info=0 / no-lowpass-dct / refine-analysis-type=0 / copy-pic=1 / max-ausize-factor=1.0 / no-dynamic-refine / no-single-sei / no-hevc-aq / no-svt / no-field / qp-adaptation-range=1.00 / no-scenecut-aware-qpconformance-window-offsets / right=0 / bottom=0 / decoder-max-rate=0 / no-vbv-live-multi-pass
Default                                  : Yes
Forced                                   : No

Audio
ID                                       : 2
Format                                   : Opus
Codec ID                                 : A_OPUS
Duration                                 : 25 min 43 s
Bit rate                                 : 129 kb/s
Channel(s)                               : 2 channels
Channel layout                           : L R
Sampling rate                            : 48.0 kHz
Frame rate                               : 50.000 FPS (960 SPF)
Compression mode                         : Lossy
Stream size                              : 23.8 MiB (9%)
Writing library                          : Lavc58.115.102 libopus
Language                                 : Japanese
Default                                  : Yes
Forced                                   : No

Text
ID                                       : 3
Format                                   : ASS
Codec ID                                 : S_TEXT/ASS
Codec ID/Info                            : Advanced Sub Station Alpha
Duration                                 : 25 min 34 s
Bit rate                                 : 941 b/s
Count of elements                        : 1502
Compression mode                         : Lossless
Stream size                              : 176 KiB (0%)
Title                                    : English
Language                                 : English
Default                                  : Yes
Forced                                   : No

Menu
00:00:00.000                             : en:Chapter 01
00:00:58.058                             : en:Chapter 02
00:02:28.022                             : en:Chapter 03
00:05:15.064                             : en:Chapter 04
00:09:09.715                             : en:Chapter 05
00:12:26.912                             : en:Chapter 06
00:13:02.990                             : en:Chapter 07
00:18:07.711                             : en:Chapter 08
00:20:15.714                             : en:Chapter 09
00:24:03.984                             : en:Chapter 10
00:25:33.990                             : en:Chapter 11

Other Files in this Torrent
[HR] Hyouka S01E11 [C14BF068].mkv
beta
Anime DDL+NZB mirror
Current Time: 19/09/2021 21:01



About/FAQs