File Size297.4 MB (311,801,705 bytes)
DownloadAnonFiles | ClickNUpload | DropAPK | Free | MultiUp
  • BdUpload
  • DownAce
  • Fichier
  • FileCloud
  • Filerio
  • FilesCdn
  • IndiShare
  • Kbagi
  • Turbobit
  • UpToBox
  • Uppit
| SolidFiles | ZippyShare
HashesCRC32: 7A5FD3B5, MD5: 27EA75BD3920254609D7D13A288BEFC5, SHA1: 23A8AD200860AEA9F0D1DE14518357A36E7E4609, SHA256: 454C70D588D4497AC6E8F65085D96205757AFD7756E696F86AD373836F81D0B4, ED2K: E8701EA1EB0D102AA01B65DADAE2319C
Screenshots
screenshotscreenshotscreenshotscreenshotscreenshot
SubtitlesAll Attachments | English [eng, ASS]
Additional Info
General
Unique ID                                : 281615709651501641125999535426266324082 (0xD3DD367A3E04B7209DDBC19F1E79DC72)
Complete name                            : [HR] Hyouka S01E15 [7A5FD3B5].mkv
Format                                   : Matroska
Format version                           : Version 4
File size                                : 297 MiB
Duration                                 : 27 min 13 s
Overall bit rate                         : 1 527 kb/s
Movie name                               : 氷菓 第8巻
Encoded date                             : UTC 2021-03-15 01:16:34
Writing application                      : mkvmerge v52.0.0 ('Secret For The Mad') 64-bit
Writing library                          : libebml v1.4.1 + libmatroska v1.6.2 / Lavf57.83.100
Attachments                              : A-OTF-GothicMB101Pr5-Light.otf / ACaslonPro-Bold_1.otf / angelina.TTF / arialbd.ttf / ArialRoundedMTStd-ExtraBold.otf / ARLRDBD.TTF / ARR_.TTF / BAKESBR.TTF / BD_Cartoon_Shout.ttf / Bolide-Regular.ttf / BRIOMN.TTF / brush-hyouka_0.ttf / brush-hyouka.ttf / BrushType_SemiBoldA_(wwww.font-cat.com).ttf / BurstMyBubble.ttf / CaxtonStd-Bold.otf / CaxtonStd-BoldItalic.otf / CENTURY.TTF / classhyouka_0.ttf / classhyouka.ttf / Classics-Hyouka.ttf / corbel.ttf / corbelb.ttf / cry7.ttf / dameji.TTF / Danger Diabolik.ttf / DFHsr4.ttc / DFKoin-W4-CP.ttf / DK Crayon Crumble.ttf / F5AJXGYK_0.TTF / F5AJXKED.TTF / fansubBlock.ttf / FromWhereYouAre.ttf / fvgranada-regular-webfont.ttf / GOTHIC.TTF / HARLC.TTF / Hyouka Italic.ttf / Hyouka Regular.ttf / hyouka-brush2.ttf / hyouka-eroded.ttf / IwaMinPro-Md-Kami_1.ttf / IwaMinPro-Md-Kami.ttf / IwaOMinPro-Bd-Fate_0.ttf / IwaOMinPro-Bd-Fate_1.ttf / IwaOMinPro-Bd-Fate.ttf / IwaOMinPro-Hv-Fate_1.ttf / IwaOMinPro-Hv-Fate.ttf / JandaCurlygirlChunky.ttf / Jenkins v2.0.ttf / Jennifers Hand Writing.ttf / Jerry_B4s_handwriting_0.ttf / Jerry_B4s_handwriting.ttf / KGSevenSixteen.ttf / KGThisIsNotGoodbye.ttf / LATO-REG.TTF / LondonTwo.ttf / maya.ttf / MyriadPro-Black.otf / PAPEJE.TTF / PIXEARG.TTF / Samurai-Gosick.ttf / Sansation_Regular.ttf / SwaggerBold.ttf / tabitha.ttf / TalkingToTheMoon.ttf / title-berserk.ttf / Titles-KokoroConnect.ttf / URLCANTMUXANDSINDALFCANTENCODE_0.ttf / verdana.ttf / verdanab.ttf

Video
ID                                       : 1
Format                                   : HEVC
Format/Info                              : High Efficiency Video Coding
Format profile                           : Main 10@L4@Main
Codec ID                                 : V_MPEGH/ISO/HEVC
Duration                                 : 27 min 13 s
Bit rate                                 : 1 281 kb/s
Width                                    : 1 920 pixels
Height                                   : 1 080 pixels
Display aspect ratio                     : 16:9
Frame rate mode                          : Constant
Frame rate                               : 23.976 (24000/1001) FPS
Color space                              : YUV
Chroma subsampling                       : 4:2:0
Bit depth                                : 10 bits
Bits/(Pixel*Frame)                       : 0.026
Stream size                              : 249 MiB (84%)
Writing library                          : x265 3.4+70-90fa80a85:[DJATOM's Mod][Windows][GCC 10.2.1][64 bit] 10bit
Encoding settings                        : cpuid=1111039 / frame-threads=4 / numa-pools=16 / wpp / no-pmode / no-pme / no-psnr / no-ssim / log-level=2 / input-csp=1 / input-res=1920x1080 / interlace=0 / total-frames=39156 / level-idc=0 / high-tier=1 / uhd-bd=0 / ref=3 / no-allow-non-conformance / no-repeat-headers / annexb / no-aud / no-hrd / info / hash=0 / no-temporal-layers / open-gop / min-keyint=23 / keyint=250 / gop-lookahead=0 / bframes=4 / b-adapt=2 / b-pyramid / bframe-bias=0 / rc-lookahead=20 / lookahead-slices=6 / scenecut=40 / hist-scenecut=0 / radl=0 / no-splice / no-intra-refresh / ctu=64 / min-cu-size=8 / no-rect / no-amp / max-tu-size=32 / tu-inter-depth=1 / tu-intra-depth=1 / limit-tu=0 / rdoq-level=0 / dynamic-rd=0.00 / no-ssim-rd / signhide / no-tskip / nr-intra=0 / nr-inter=0 / no-constrained-intra / strong-intra-smoothing / max-merge=3 / limit-refs=3 / no-limit-modes / me=1 / subme=2 / merange=57 / temporal-mvp / no-frame-dup / no-hme / weightp / no-weightb / no-analyze-src-pics / deblock=0:0 / sao / no-sao-non-deblock / rd=3 / selective-sao=4 / early-skip / rskip / no-fast-intra / no-tskip-fast / no-cu-lossless / b-intra / no-splitrd-skip / rdpenalty=0 / psy-rd=2.00 / psy-rdoq=0.00 / no-rd-refine / no-lossless / cbqpoffs=0 / crqpoffs=0 / rc=crf / crf=20.0 / qcomp=0.60 / qpstep=4 / stats-write=0 / stats-read=0 / ipratio=1.40 / pbratio=1.30 / aq-mode=2 / aq-strength=1.00 / cutree / zone-count=0 / no-strict-cbr / qg-size=32 / no-rc-grain / qpmax=69 / qpmin=0 / no-const-vbv / sar=0 / overscan=0 / videoformat=5 / range=0 / colorprim=2 / transfer=2 / colormatrix=2 / chromaloc=0 / display-window=0 / cll=0,0 / min-luma=0 / max-luma=1023 / log2-max-poc-lsb=8 / vui-timing-info / vui-hrd-info / slices=1 / no-opt-qp-pps / no-opt-ref-list-length-pps / no-multi-pass-opt-rps / scenecut-bias=0.05 / hist-threshold=0.01 / no-opt-cu-delta-qp / no-aq-motion / no-hdr10 / no-hdr10-opt / no-dhdr10-opt / no-idr-recovery-sei / analysis-reuse-level=0 / analysis-save-reuse-level=0 / analysis-load-reuse-level=0 / scale-factor=0 / refine-intra=0 / refine-inter=0 / refine-mv=1 / refine-ctu-distortion=0 / no-limit-sao / ctu-info=0 / no-lowpass-dct / refine-analysis-type=0 / copy-pic=1 / max-ausize-factor=1.0 / no-dynamic-refine / no-single-sei / no-hevc-aq / no-svt / no-field / qp-adaptation-range=1.00 / no-scenecut-aware-qpconformance-window-offsets / right=0 / bottom=0 / decoder-max-rate=0 / no-vbv-live-multi-pass
Default                                  : Yes
Forced                                   : No

Audio
ID                                       : 2
Format                                   : Opus
Codec ID                                 : A_OPUS
Duration                                 : 27 min 13 s
Bit rate                                 : 123 kb/s
Channel(s)                               : 2 channels
Channel layout                           : L R
Sampling rate                            : 48.0 kHz
Frame rate                               : 50.001 FPS (960 SPF)
Compression mode                         : Lossy
Stream size                              : 24.0 MiB (8%)
Writing library                          : Lavc58.115.102 libopus
Language                                 : Japanese
Default                                  : Yes
Forced                                   : No

Text
ID                                       : 3
Format                                   : ASS
Codec ID                                 : S_TEXT/ASS
Codec ID/Info                            : Advanced Sub Station Alpha
Duration                                 : 27 min 8 s
Bit rate                                 : 493 b/s
Count of elements                        : 1110
Compression mode                         : Lossless
Stream size                              : 98.2 KiB (0%)
Title                                    : English
Language                                 : English
Default                                  : Yes
Forced                                   : No

Menu
00:00:00.000                             : en:Chapter 01
00:01:02.979                             : en:Chapter 02
00:02:33.027                             : en:Chapter 03
00:05:33.082                             : en:Chapter 04
00:08:20.917                             : en:Chapter 05
00:11:13.673                             : en:Chapter 06
00:12:26.036                             : en:Chapter 07
00:15:22.963                             : en:Chapter 08
00:19:10.190                             : en:Chapter 09
00:22:00.193                             : en:Chapter 10
00:23:51.263                             : en:Chapter 11
00:25:34.032                             : en:Chapter 12
00:27:04.039                             : en:Chapter 13

Other Files in this Torrent
[HR] Hyouka S01E15 [7A5FD3B5].mkv
beta
Anime DDL+NZB mirror
Current Time: 01/08/2021 21:25



About/FAQs