File Size183.7 MB (192,661,193 bytes)
DownloadClickNUpload | Jheberg | MultiUp
  • BdUpload
  • DownAce
  • Fichier
  • FileCloud
  • Filerio
  • FilesCdn
  • IndiShare
  • Kbagi
  • Turbobit
  • UpToBox
  • Uppit
| Sendspace | SolidFiles | ZippyShare
HashesCRC32: 67C309E3, MD5: B9AAC9D28CE3A342AE66E95A2F8C943B, SHA1: DFBB706924EBDD8EA5C32CD5D16C03CE598A1825, SHA256: 783779F03B9D0815C022122C7DEE890C2BAA8EF33731EB9ED05D65CF464EDD8A, ED2K: F73488DC18F0E230568E41AFF483D51D
Screenshots
screenshotscreenshotscreenshotscreenshotscreenshot
SubtitlesAll Attachments | eng [ASS]
Additional Info
General
Unique ID                                : 313579444844531218785313208966342208957 (0xEBE9344B8009B08EB913D36FEC2F6DBD)
Complete name                            : [Hakata Ramen] Kyokou Suiri S01E03.mkv
Format                                   : Matroska
Format version                           : Version 4
File size                                : 184 MiB
Duration                                 : 24 min 0 s
Overall bit rate                         : 1 070 kb/s
Movie name                               : [Hakata Ramen] Kyokou Suiri S01E03 (GodZilla)
Encoded date                             : UTC 2020-02-01 14:34:35
Writing application                      : mkvmerge v43.0.0 ('The Quartermaster') 64-bit
Writing library                          : libebml v1.3.10 + libmatroska v1.5.2
Attachments                              : OpenSans-Semibold.ttf

Video
ID                                       : 1
Format                                   : HEVC
Format/Info                              : High Efficiency Video Coding
Format profile                           : Main@L4@Main
Codec ID                                 : V_MPEGH/ISO/HEVC
Duration                                 : 24 min 0 s
Bit rate                                 : 939 kb/s
Width                                    : 1 920 pixels
Height                                   : 1 080 pixels
Display aspect ratio                     : 16:9
Frame rate mode                          : Constant
Frame rate                               : 23.976 (24000/1001) FPS
Color space                              : YUV
Chroma subsampling                       : 4:2:0
Bit depth                                : 8 bits
Bits/(Pixel*Frame)                       : 0.019
Stream size                              : 161 MiB (88%)
Title                                    : [Hakata Ramen] HEVC/.x265 (GodZilla)
Language                                 : Japanese
Default                                  : Yes
Forced                                   : No
Color range                              : Limited
Color primaries                          : BT.709
Transfer characteristics                 : BT.709
Matrix coefficients                      : BT.709

Audio
ID                                       : 2
Format                                   : Opus
Codec ID                                 : A_OPUS
Duration                                 : 24 min 0 s
Bit rate                                 : 128 kb/s
Channel(s)                               : 2 channels
Channel layout                           : L R
Sampling rate                            : 44.1 kHz
Frame rate                               : 50.001 FPS (882 SPF)
Compression mode                         : Lossy
Stream size                              : 22.0 MiB (12%)
Title                                    : [Hakata Ramen] 2 Channels Stereo (GodZilla)
Language                                 : Japanese
Default                                  : Yes
Forced                                   : No

Text
ID                                       : 3
Format                                   : ASS
Codec ID                                 : S_TEXT/ASS
Codec ID/Info                            : Advanced Sub Station Alpha
Duration                                 : 23 min 58 s
Bit rate                                 : 161 b/s
Count of elements                        : 374
Compression mode                         : Lossless
Stream size                              : 28.3 KiB (0%)
Language                                 : English
Default                                  : No
Forced                                   : No

Other Files in this Torrent
[Hakata Ramen] Kyokou Suiri S01E03.mkv
beta
Anime DDL+NZB mirror
Current Time: 26/09/2021 04:40



About/FAQs

Discord