File Size164.2 MB (172,139,394 bytes)
DownloadClickNUpload | Jheberg | MultiUp
  • BdUpload
  • DownAce
  • Fichier
  • FileCloud
  • Filerio
  • FilesCdn
  • IndiShare
  • Kbagi
  • Turbobit
  • UpToBox
  • Uppit
| Sendspace | SolidFiles | ZippyShare
HashesCRC32: F9BE05BC, MD5: 4408D3F9F5BA432BC433545E748D3188, SHA1: 5A6D9AFAD528A2457E8B348C06D8FCE9F3F80AE1, SHA256: 3E7B58436ACF6B839EF679FC8E152941F2BFE17E3C9B5F1EBED1B98ECE916CA8, ED2K: 05A202432CF23C07460DD45727D8B986
Screenshots
screenshotscreenshotscreenshotscreenshotscreenshot
SubtitlesAll Attachments | eng [ASS]
Additional Info
General
Unique ID                                : 206819808505510304061164958616039479514 (0x9B980BD5AF47E581131C5588668058DA)
Complete name                            : [Hakata Ramen] Kyokou Suiri S01E01.mkv
Format                                   : Matroska
Format version                           : Version 4
File size                                : 164 MiB
Duration                                 : 24 min 0 s
Overall bit rate                         : 956 kb/s
Movie name                               : [Hakata Ramen] Kyokou Suiri S01E01 (GodZilla)
Encoded date                             : UTC 2020-02-01 14:29:37
Writing application                      : mkvmerge v43.0.0 ('The Quartermaster') 64-bit
Writing library                          : libebml v1.3.10 + libmatroska v1.5.2
Attachments                              : OpenSans-Semibold.ttf

Video
ID                                       : 1
Format                                   : HEVC
Format/Info                              : High Efficiency Video Coding
Format profile                           : Main@L4@Main
Codec ID                                 : V_MPEGH/ISO/HEVC
Duration                                 : 24 min 0 s
Bit rate                                 : 825 kb/s
Width                                    : 1 920 pixels
Height                                   : 1 080 pixels
Display aspect ratio                     : 16:9
Frame rate mode                          : Constant
Frame rate                               : 23.976 (24000/1001) FPS
Color space                              : YUV
Chroma subsampling                       : 4:2:0
Bit depth                                : 8 bits
Bits/(Pixel*Frame)                       : 0.017
Stream size                              : 142 MiB (86%)
Title                                    : [Hakata Ramen] HEVC/.x265 (GodZilla)
Language                                 : Japanese
Default                                  : Yes
Forced                                   : No
Color range                              : Limited
Color primaries                          : BT.709
Transfer characteristics                 : BT.709
Matrix coefficients                      : BT.709

Audio
ID                                       : 2
Format                                   : Opus
Codec ID                                 : A_OPUS
Duration                                 : 24 min 0 s
Bit rate                                 : 128 kb/s
Channel(s)                               : 2 channels
Channel layout                           : L R
Sampling rate                            : 44.1 kHz
Frame rate                               : 50.000 FPS (882 SPF)
Compression mode                         : Lossy
Stream size                              : 22.0 MiB (13%)
Title                                    : [Hakata Ramen] 2 Channels Stereo (GodZilla)
Language                                 : Japanese
Default                                  : Yes
Forced                                   : No

Text
ID                                       : 3
Format                                   : ASS
Codec ID                                 : S_TEXT/ASS
Codec ID/Info                            : Advanced Sub Station Alpha
Duration                                 : 23 min 47 s
Bit rate                                 : 145 b/s
Count of elements                        : 331
Compression mode                         : Lossless
Stream size                              : 25.4 KiB (0%)
Language                                 : English
Default                                  : No
Forced                                   : No

Other Files in this Torrent
[Hakata Ramen] Kyokou Suiri S01E01.mkv
beta
Anime DDL+NZB mirror
Current Time: 26/09/2021 02:37



About/FAQs

Discord