File Size194.3 MB (203,713,573 bytes)
DownloadClickNUpload | Jheberg | MultiUp
  • BdUpload
  • DownAce
  • Fichier
  • FileCloud
  • Filerio
  • FilesCdn
  • IndiShare
  • Kbagi
  • Turbobit
  • UpToBox
  • Uppit
| Sendspace | SolidFiles | ZippyShare
HashesCRC32: 387052D2, MD5: D9DFA732FB368473032A2A0BF754C128, SHA1: 7620D17C6D8759A0CF0F04DB094D02C602E7D2A3, SHA256: B190F1E61C12A533C3A4A64B1428073BA16621328656A2849E53B09390696387, ED2K: BBEAEAE247462802A6313BF5A186440A
Screenshots
screenshotscreenshotscreenshotscreenshotscreenshot
SubtitlesAll Attachments | eng [ASS]
Additional Info
General
Unique ID                                : 121606195246856675367574107076062087104 (0x5B7C805434E9FCBA11401E630BF407C0)
Complete name                            : [Hakata Ramen] Kyokou Suiri S01E02.mkv
Format                                   : Matroska
Format version                           : Version 4
File size                                : 194 MiB
Duration                                 : 24 min 0 s
Overall bit rate                         : 1 132 kb/s
Movie name                               : [Hakata Ramen] Kyokou Suiri S01E02 (GodZilla)
Encoded date                             : UTC 2020-02-01 14:32:25
Writing application                      : mkvmerge v43.0.0 ('The Quartermaster') 64-bit
Writing library                          : libebml v1.3.10 + libmatroska v1.5.2
Attachments                              : OpenSans-Semibold.ttf

Video
ID                                       : 1
Format                                   : HEVC
Format/Info                              : High Efficiency Video Coding
Format profile                           : Main@L4@Main
Codec ID                                 : V_MPEGH/ISO/HEVC
Duration                                 : 23 min 59 s
Bit rate                                 : 1 000 kb/s
Width                                    : 1 920 pixels
Height                                   : 1 080 pixels
Display aspect ratio                     : 16:9
Frame rate mode                          : Constant
Frame rate                               : 23.976 (24000/1001) FPS
Color space                              : YUV
Chroma subsampling                       : 4:2:0
Bit depth                                : 8 bits
Bits/(Pixel*Frame)                       : 0.020
Stream size                              : 172 MiB (88%)
Title                                    : [Hakata Ramen] HEVC/.x265 (GodZilla)
Language                                 : Japanese
Default                                  : Yes
Forced                                   : No
Color range                              : Limited
Color primaries                          : BT.709
Transfer characteristics                 : BT.709
Matrix coefficients                      : BT.709

Audio
ID                                       : 2
Format                                   : Opus
Codec ID                                 : A_OPUS
Duration                                 : 24 min 0 s
Bit rate                                 : 128 kb/s
Channel(s)                               : 2 channels
Channel layout                           : L R
Sampling rate                            : 44.1 kHz
Frame rate                               : 50.000 FPS (882 SPF)
Compression mode                         : Lossy
Stream size                              : 22.0 MiB (11%)
Title                                    : [Hakata Ramen] 2 Channels Stereo (GodZilla)
Language                                 : Japanese
Default                                  : Yes
Forced                                   : No

Text
ID                                       : 3
Format                                   : ASS
Codec ID                                 : S_TEXT/ASS
Codec ID/Info                            : Advanced Sub Station Alpha
Duration                                 : 23 min 51 s
Bit rate                                 : 163 b/s
Count of elements                        : 368
Compression mode                         : Lossless
Stream size                              : 28.5 KiB (0%)
Language                                 : English
Default                                  : No
Forced                                   : No

Other Files in this Torrent
[Hakata Ramen] Kyokou Suiri S01E02.mkv
beta
Anime DDL+NZB mirror
Current Time: 26/09/2021 02:59



About/FAQs

Discord