File Size372.3 MB (390,377,421 bytes)
DownloadClickNUpload | Go4Up | Jheberg
  • 1Fichier
  • FileCloud
  • Free
  • Jeodrive
  • Openload
  • Rockfile
  • Turbobit
  • Tusfiles
  • UpToBox
  • UploadedTo
| MultiUp
  • BdUpload
  • DownAce
  • Fichier
  • Filerio
  • FilesCdn
  • IndiShare
  • Kbagi
  • Turbobit
  • UploadRocket
  • Uploading
  • Uppit
| OpenLoad | SolidFiles | Upfile.mobi
Sendspace: Part1, Part2
Encrypted DownloadDirect
Password:
HashesCRC32: E1B0A8D0, MD5: A5CCD2CD3F2D8D68C0A132C355AE0426, SHA1: C707BC7B9AAF01C9E36AFE1F9B80FE065591FC52, SHA256: 6DAA069946592E4BC2C3B1FA9B33F015BBC653CC61F474AACBB8FF487E0B5639, ED2K: 2F225783970E427F3CC1A5FDF41B0AEA
Screenshots
screenshotscreenshotscreenshotscreenshotscreenshot
SubtitlesAll Attachments | Amazon (Modified) [eng, ASS]
Additional Info
General
Unique ID                                : 180878989700244185782953817885836585872 (0x881406B8CE6CC4EDB9B07FA492CC2B90)
Complete name                            : [Foxtrot] Welcome to the Ballroom - 17 [E1B0A8D0].mkv
Format                                   : Matroska
Format version                           : Version 4 / Version 2
File size                                : 372 MiB
Duration                                 : 24 min 10 s
Overall bit rate                         : 2 154 kb/s
Encoded date                             : UTC 2017-11-30 23:48:36
Writing application                      : mkvmerge v9.4.0 ('Knurl') 64bit
Writing library                          : libebml v1.3.4 + libmatroska v1.4.5
Cover                                    : Yes
Attachments                              : Arethusa Medium Italic.otf / Chocolate Covered Raindrops Bold_0.ttf / FONTIN_SANS_4.OTF / FONTIN_SANS_BI_4.OTF / IWAOMINPRO-FATE-BD.TTF / Patagonia.ttf

Video
ID                                       : 1
Format                                   : AVC
Format/Info                              : Advanced Video Codec
Format profile                           : High 10@L5
Format settings, CABAC                   : Yes
Format settings, ReFrames                : 16 frames
Codec ID                                 : V_MPEG4/ISO/AVC
Duration                                 : 24 min 10 s
Bit rate                                 : 1 922 kb/s
Width                                    : 1 280 pixels
Height                                   : 720 pixels
Display aspect ratio                     : 16:9
Frame rate mode                          : Constant
Frame rate                               : 23.976 (24000/1001) FPS
Color space                              : YUV
Chroma subsampling                       : 4:2:0
Bit depth                                : 10 bits
Scan type                                : Progressive
Bits/(Pixel*Frame)                       : 0.087
Stream size                              : 332 MiB (89%)
Writing library                          : x264 core 148 r2705+54 9f484c1 t_mod_Custom [10-bit@all X86_64]
Encoding settings                        : cabac=1 / ref=16 / deblock=1:-2:-2 / analyse=0x3:0x133 / me=umh / subme=10 / psy=1 / fade_compensate=0.70 / psy_rd=0.60:0.15 / mixed_ref=1 / me_range=24 / chroma_me=1 / trellis=2 / 8x8dct=1 / cqm=0 / deadzone=21,11 / fast_pskip=1 / chroma_qp_offset=-3 / threads=12 / lookahead_threads=3 / sliced_threads=0 / nr=0 / decimate=1 / interlaced=0 / bluray_compat=0 / constrained_intra=0 / fgo=0 / bframes=12 / b_pyramid=2 / b_adapt=2 / b_bias=0 / direct=3 / weightb=1 / open_gop=0 / weightp=2 / keyint=250 / keyint_min=23 / scenecut=40 / intra_refresh=0 / rc_lookahead=60 / rc=crf / mbtree=1 / crf=16.0000 / qcomp=0.70 / qpmin=0:0:0 / qpmax=80:80:80 / qpstep=4 / ip_ratio=1.40 / aq=3:0.85 / aq-sensitivity=10.00 / aq-factor=1.00:1.00:1.00 / aq2=0 / aq3=0
Default                                  : Yes
Forced                                   : No
Color range                              : Limited
Color primaries                          : BT.709
Transfer characteristics                 : BT.709
Matrix coefficients                      : BT.709

Audio
ID                                       : 2
Format                                   : E-AC-3
Format/Info                              : Enhanced Audio Coding 3
Format settings, Endianness              : Big
Codec ID                                 : A_EAC3
Duration                                 : 24 min 9 s
Bit rate mode                            : Constant
Bit rate                                 : 224 kb/s
Channel(s)                               : 2 channels
Channel positions                        : Front: L R
Sampling rate                            : 48.0 kHz
Frame rate                               : 187.500 FPS (256 spf)
Compression mode                         : Lossy
Stream size                              : 38.7 MiB (10%)
Title                                    : EAC3
Language                                 : Japanese
Default                                  : No
Forced                                   : No

Text
ID                                       : 3
Format                                   : ASS
Codec ID                                 : S_TEXT/ASS
Codec ID/Info                            : Advanced Sub Station Alpha
Duration                                 : 24 min 5 s
Bit rate                                 : 430 b/s
Count of elements                        : 524
Compression mode                         : Lossless
Stream size                              : 75.9 KiB (0%)
Title                                    : Amazon (Modified)
Language                                 : English
Default                                  : Yes
Forced                                   : No

Menu
00:00:00.033                             : en:Intro
00:01:16.970                             : en:OP
00:02:47.020                             : en:Part A
00:10:14.460                             : en:Part B
00:22:25.030                             : en:ED
00:23:54.990                             : en:Preview

Other Files in this Torrent
[Foxtrot] Welcome to the Ballroom - 17 [E1B0A8D0].mkv
beta
Anime DDL+NZB mirror
Current Time: 23/01/2020 02:31



About/FAQs