File Size220.7 MB (231,441,783 bytes)
DownloadClickNUpload | Go4Up | Jheberg | MultiUp
  • BdUpload
  • DownAce
  • Fichier
  • Filerio
  • FilesCdn
  • IndiShare
  • Kbagi
  • Turbobit
  • UploadRocket
  • Uploading
  • Uppit
| OpenLoad | Sendspace | SolidFiles | Upfile.mobi
HashesCRC32: 2FFA48C6, MD5: 9B6B4D28773140BC5B9B5BFDA404A88F, SHA1: A86E9DE3102BB97898174D74ABFC4296EDD854C7, SHA256: FD6147397C0E1AF55C2B220FCE582DE61AC3E38388D3106CEBDA0359285420A9, ED2K: 4CBCC12A283137288847898C555649A9
Screenshots
screenshotscreenshotscreenshotscreenshotscreenshot
SubtitlesAll Attachments | Amazon (Modified) [eng, ASS]
Additional Info
General
Unique ID                                : 180710428419554451697379534269482797612 (0x87F3900255B71CB7951869AF55C00A2C)
Complete name                            : [Foxtrot] Welcome to the Ballroom - 13 [2FFA48C6].mkv
Format                                   : Matroska
Format version                           : Version 4 / Version 2
File size                                : 221 MiB
Duration                                 : 24 min 9 s
Overall bit rate                         : 1 277 kb/s
Encoded date                             : UTC 2017-10-17 03:29:54
Writing application                      : mkvmerge v9.4.0 ('Knurl') 64bit
Writing library                          : libebml v1.3.4 + libmatroska v1.4.5
Cover                                    : Yes
Attachments                              : Arethusa Medium Italic.otf / Chocolate Covered Raindrops Bold_0.ttf / FONTIN_SANS_4.OTF / FONTIN_SANS_BI_4.OTF / IWAOMINPRO-FATE-BD.TTF / KozukaMinchoProStrp-H.otf / MyriadArabic-Regular.otf / Roboto-Medium_0.ttf

Video
ID                                       : 1
Format                                   : AVC
Format/Info                              : Advanced Video Codec
Format profile                           : High 10@L5
Format settings, CABAC                   : Yes
Format settings, ReFrames                : 16 frames
Codec ID                                 : V_MPEG4/ISO/AVC
Duration                                 : 24 min 9 s
Bit rate                                 : 1 043 kb/s
Width                                    : 1 280 pixels
Height                                   : 720 pixels
Display aspect ratio                     : 16:9
Frame rate mode                          : Constant
Frame rate                               : 23.976 (24000/1001) FPS
Color space                              : YUV
Chroma subsampling                       : 4:2:0
Bit depth                                : 10 bits
Scan type                                : Progressive
Bits/(Pixel*Frame)                       : 0.047
Stream size                              : 180 MiB (82%)
Writing library                          : x264 core 148 r2705+54 9f484c1 t_mod_Custom [10-bit@all X86_64]
Encoding settings                        : cabac=1 / ref=16 / deblock=1:-2:-2 / analyse=0x3:0x133 / me=umh / subme=10 / psy=1 / fade_compensate=0.70 / psy_rd=0.60:0.15 / mixed_ref=1 / me_range=24 / chroma_me=1 / trellis=2 / 8x8dct=1 / cqm=0 / deadzone=21,11 / fast_pskip=1 / chroma_qp_offset=-3 / threads=12 / lookahead_threads=3 / sliced_threads=0 / nr=0 / decimate=1 / interlaced=0 / bluray_compat=0 / constrained_intra=0 / fgo=0 / bframes=12 / b_pyramid=2 / b_adapt=2 / b_bias=0 / direct=3 / weightb=1 / open_gop=0 / weightp=2 / keyint=250 / keyint_min=23 / scenecut=40 / intra_refresh=0 / rc_lookahead=60 / rc=crf / mbtree=1 / crf=18.0000 / qcomp=0.70 / qpmin=0:0:0 / qpmax=80:80:80 / qpstep=4 / ip_ratio=1.40 / aq=3:0.85 / aq-sensitivity=10.00 / aq-factor=1.00:1.00:1.00 / aq2=0 / aq3=0
Default                                  : Yes
Forced                                   : No
Color range                              : Limited
Color primaries                          : BT.709
Transfer characteristics                 : BT.709
Matrix coefficients                      : BT.709

Audio
ID                                       : 2
Format                                   : E-AC-3
Format/Info                              : Enhanced Audio Coding 3
Format settings, Endianness              : Big
Codec ID                                 : A_EAC3
Duration                                 : 24 min 9 s
Bit rate mode                            : Constant
Bit rate                                 : 224 kb/s
Channel(s)                               : 2 channels
Channel positions                        : Front: L R
Sampling rate                            : 48.0 kHz
Frame rate                               : 187.500 FPS (256 spf)
Compression mode                         : Lossy
Stream size                              : 38.7 MiB (18%)
Title                                    : EAC3
Language                                 : Japanese
Default                                  : No
Forced                                   : No

Text
ID                                       : 3
Format                                   : ASS
Codec ID                                 : S_TEXT/ASS
Codec ID/Info                            : Advanced Sub Station Alpha
Duration                                 : 24 min 8 s
Bit rate                                 : 343 b/s
Count of elements                        : 477
Compression mode                         : Lossless
Stream size                              : 60.8 KiB (0%)
Title                                    : Amazon (Modified)
Language                                 : English
Default                                  : Yes
Forced                                   : No

Menu
00:00:00.033                             : en:Intro
00:00:51.030                             : en:OP
00:02:20.990                             : en:Part A
00:12:16.960                             : en:Part B
00:22:24.990                             : en:ED
00:23:54.950                             : en:Preview

Other Files in this Torrent
[Foxtrot] Welcome to the Ballroom - 13 [2FFA48C6].mkv
beta
Anime DDL+NZB mirror
Current Time: 08/08/2020 23:59



About/FAQs