File Size370.8 MB (388,821,455 bytes)
DownloadClickNUpload | Go4Up | Jheberg
  • 1Fichier
  • FileCloud
  • Free
  • Jeodrive
  • Openload
  • Rockfile
  • Turbobit
  • Tusfiles
  • UpToBox
  • UploadedTo
| MultiUp
  • BdUpload
  • DownAce
  • Fichier
  • Filerio
  • FilesCdn
  • IndiShare
  • Kbagi
  • Turbobit
  • UploadRocket
  • Uploading
  • Uppit
| OpenLoad | SolidFiles | Upfile.mobi
Sendspace: Part1, Part2
HashesCRC32: DBFDB8F8, MD5: 0445FDB6CD1E77BB09B43F0C9CC31A33, SHA1: EB764D0A5D896636120181B3BA2322B06CD42339, SHA256: 93BBC150359CF3AC7D534FF0868AEAE6A73E402C5BE0A50176144BFAF1F8EA6F, ED2K: 4F3218E51B23DA514A9AFC852943E9C0
Screenshots
screenshotscreenshotscreenshotscreenshotscreenshot
SubtitlesAll Attachments | Amazon (Modified) [eng, ASS]
Additional Info
General
Unique ID                                : 193224987955469230180861993688054864661 (0x915DC76E8ED46EB0BBD8AD4B1A339B15)
Complete name                            : [Foxtrot] Welcome to the Ballroom - 03 [DBFDB8F8].mkv
Format                                   : Matroska
Format version                           : Version 4 / Version 2
File size                                : 371 MiB
Duration                                 : 24 min 9 s
Overall bit rate                         : 2 145 kb/s
Encoded date                             : UTC 2017-07-24 05:03:24
Writing application                      : mkvmerge v9.4.0 ('Knurl') 64bit
Writing library                          : libebml v1.3.4 + libmatroska v1.4.5
Attachments                              : Arethusa Medium Italic.otf / FONTIN_SANS_4.OTF / FONTIN_SANS_BI_4.OTF / FOT Rodin Pro EB.ttf / IwaOMinPro-Hv-En.ttf / IwaOMinPro-Hv-Fate.ttf / RUZICKATYPEK.TTF

Video #1
ID                                       : 1
Format                                   : AVC
Format/Info                              : Advanced Video Codec
Format profile                           : High 10@L5
Format settings, CABAC                   : Yes
Format settings, ReFrames                : 16 frames
Codec ID                                 : V_MPEG4/ISO/AVC
Duration                                 : 24 min 9 s
Bit rate                                 : 1 878 kb/s
Width                                    : 1 280 pixels
Height                                   : 720 pixels
Display aspect ratio                     : 16:9
Frame rate mode                          : Constant
Frame rate                               : 23.976 (24000/1001) FPS
Color space                              : YUV
Chroma subsampling                       : 4:2:0
Bit depth                                : 10 bits
Scan type                                : Progressive
Bits/(Pixel*Frame)                       : 0.085
Stream size                              : 325 MiB (88%)
Writing library                          : x264 core 148 r2705+54 9f484c1 t_mod_Custom [10-bit@all X86_64]
Encoding settings                        : cabac=1 / ref=16 / deblock=1:-2:-2 / analyse=0x3:0x133 / me=umh / subme=10 / psy=1 / fade_compensate=0.70 / psy_rd=0.60:0.15 / mixed_ref=1 / me_range=24 / chroma_me=1 / trellis=2 / 8x8dct=1 / cqm=0 / deadzone=21,11 / fast_pskip=1 / chroma_qp_offset=-3 / threads=12 / lookahead_threads=3 / sliced_threads=0 / nr=0 / decimate=1 / interlaced=0 / bluray_compat=0 / constrained_intra=0 / fgo=0 / bframes=12 / b_pyramid=2 / b_adapt=2 / b_bias=0 / direct=3 / weightb=1 / open_gop=0 / weightp=2 / keyint=250 / keyint_min=23 / scenecut=40 / intra_refresh=0 / rc_lookahead=60 / rc=crf / mbtree=1 / crf=16.0000 / qcomp=0.70 / qpmin=0:0:0 / qpmax=80:80:80 / qpstep=4 / ip_ratio=1.40 / aq=3:0.85 / aq-sensitivity=10.00 / aq-factor=1.00:1.00:1.00 / aq2=0 / aq3=0
Default                                  : Yes
Forced                                   : No
Color range                              : Limited
Color primaries                          : BT.709
Transfer characteristics                 : BT.709
Matrix coefficients                      : BT.709

Video #2
ID                                       : 4
Format                                   : AVC
Format/Info                              : Advanced Video Codec
Codec ID                                 : V_MPEG4/ISO/AVC
Bit rate                                 : 0 b/s
Width                                    : 36 864 pixels
Height                                   : 3 072 pixels
Display aspect ratio                     : 12.000
Frame rate mode                          : Constant
Stream size                              : 0.00 Byte (0%)
Default                                  : No
Forced                                   : No

Audio
ID                                       : 2
Format                                   : E-AC-3
Format/Info                              : Enhanced Audio Coding 3
Format settings, Endianness              : Big
Codec ID                                 : A_EAC3
Duration                                 : 24 min 9 s
Bit rate mode                            : Constant
Bit rate                                 : 224 kb/s
Channel(s)                               : 2 channels
Channel positions                        : Front: L R
Sampling rate                            : 48.0 kHz
Frame rate                               : 187.500 FPS (256 spf)
Compression mode                         : Lossy
Stream size                              : 38.7 MiB (10%)
Title                                    : EAC3
Language                                 : Japanese
Default                                  : No
Forced                                   : No

Text
ID                                       : 3
Format                                   : ASS
Codec ID                                 : S_TEXT/ASS
Codec ID/Info                            : Advanced Sub Station Alpha
Duration                                 : 24 min 5 s
Bit rate                                 : 161 b/s
Count of elements                        : 416
Compression mode                         : Lossless
Stream size                              : 28.6 KiB (0%)
Title                                    : Amazon (Modified)
Language                                 : English
Default                                  : Yes
Forced                                   : No

Menu
00:00:00.033                             : en:Intro
00:01:41.990                             : en:OP
00:03:11.960                             : en:Part A
00:13:50.010                             : en:Part B
00:22:24.990                             : en:ED
00:23:54.950                             : en:Preview

Other Files in this Torrent
[Foxtrot] Welcome to the Ballroom - 03 [DBFDB8F8].mkv
beta
Anime DDL+NZB mirror
Current Time: 08/08/2020 23:51



About/FAQs