File Size75.53 MB (79,201,769 bytes)
DownloadAnonFiles | ClickNUpload | DownloadGG | KrakenFiles | MultiUp
  • BdUpload
  • DownAce
  • Fichier
  • FileCloud
  • Filerio
  • FilesCdn
  • IndiShare
  • Kbagi
  • Turbobit
  • UpToBox
  • Uppit
| ZippyShare
HashesCRC32: 02D84965, MD5: CE30CE48087383A574FB791BA7DDE72E, SHA1: A8516622BC0920B52703AD18037DD993C2BF5D53, SHA256: 011627630ECD98EBDC3EA1C0909C6DFCBFC88B31EB3C3359C43EE3628C8875A4, ED2K: 59B289303F3E13F4006174A73D531042
Screenshots
screenshotscreenshot
SubtitlesAll Attachments | und [ASS]
Additional Info
General
Unique ID                                : 339593940849691645460629223203568435226 (0xFF7B69F96150953329B41D6A28F1401A)
Complete name                            : Date A Live S4 - OP (BD 1080p).mkv
Format                                   : Matroska
Format version                           : Version 4
File size                                : 75.5 MiB
Duration                                 : 1 min 32 s
Overall bit rate                         : 6 875 kb/s
Movie name                               : Date A Live S4 - OP (BD 1080p)
Encoded date                             : UTC 2022-11-09 09:56:09
Writing application                      : mkvmerge v64.0.0 ('Willows') 64-bit
Writing library                          : libebml v1.4.2 + libmatroska v1.6.4
Attachments                              : CrocodileFeet-Regular.ttf / Emotion Engine.otf / Paper Johnny Eins.ttf / THERIFV2.TTF / yumindb.ttf / Corporate-Logo-Rounded.ttf

Video
ID                                       : 1
Format                                   : AVC
Format/Info                              : Advanced Video Codec
Format profile                           : Main@L4.1
Format settings                          : CABAC / 2 Ref Frames
Format settings, CABAC                   : Yes
Format settings, Reference frames        : 2 frames
Codec ID                                 : V_MPEG4/ISO/AVC
Duration                                 : 1 min 32 s
Bit rate                                 : 4 515 kb/s
Width                                    : 1 920 pixels
Height                                   : 1 080 pixels
Display aspect ratio                     : 16:9
Frame rate mode                          : Constant
Frame rate                               : 23.976 (24000/1001) FPS
Color space                              : YUV
Chroma subsampling                       : 4:2:0
Bit depth                                : 8 bits
Scan type                                : Progressive
Bits/(Pixel*Frame)                       : 0.091
Stream size                              : 49.6 MiB (66%)
Default                                  : Yes
Forced                                   : No

Audio
ID                                       : 2
Format                                   : AAC LC
Format/Info                              : Advanced Audio Codec Low Complexity
Codec ID                                 : A_AAC-2
Duration                                 : 1 min 32 s
Bit rate                                 : 215 kb/s
Channel(s)                               : 2 channels
Channel layout                           : L R
Sampling rate                            : 44.1 kHz
Frame rate                               : 43.066 FPS (1024 SPF)
Compression mode                         : Lossy
Delay relative to video                  : -46 ms
Stream size                              : 2.37 MiB (3%)
Language                                 : Japanese
Default                                  : Yes
Forced                                   : No

Text
ID                                       : 3
Format                                   : ASS
Codec ID                                 : S_TEXT/ASS
Codec ID/Info                            : Advanced Sub Station Alpha
Duration                                 : 1 min 2 s
Bit rate                                 : 553 b/s
Count of elements                        : 39
Compression mode                         : Lossless
Stream size                              : 4.21 KiB (0%)
Default                                  : Yes
Forced                                   : No

Other Files in this Torrent
Extra/Date A Live S4 - OP (BD 1080p).mkv
beta
Anime DDL+NZB mirror
Current Time: 20/04/2024 09:49



About/FAQs

Discord