File Size64.66 MB (67,796,691 bytes)
DownloadAnonFiles | ClickNUpload | DownloadGG | KrakenFiles | MultiUp
  • BdUpload
  • DownAce
  • Fichier
  • FileCloud
  • Filerio
  • FilesCdn
  • IndiShare
  • Kbagi
  • Turbobit
  • UpToBox
  • Uppit
| ZippyShare
HashesCRC32: B1E6EB1D, MD5: EEFD2FE279AE287758615DEEB627C3F4, SHA1: 53B765DCC76A9CDEFCD07B8CF5575805C3A3CC9A, SHA256: 63C08AF75F083E8B52EEF517AB21A57E16E60FFCFBD98045EFDD85670759745C, ED2K: 0D9A9A6A5105A875AEF59C97AC5B69EF
Screenshots
screenshotscreenshot
SubtitlesAll Attachments | und [ASS]
Additional Info
General
Unique ID                                : 226017140558415500286271246600399803461 (0xAA0951618AC1E39594F87A631094D445)
Complete name                            : Date A Live S4 - ED (BD 1080p).mkv
Format                                   : Matroska
Format version                           : Version 4
File size                                : 64.7 MiB
Duration                                 : 1 min 32 s
Overall bit rate                         : 5 885 kb/s
Movie name                               : Date A Live - ED (BD 1080p)
Encoded date                             : UTC 2022-11-09 09:55:33
Writing application                      : mkvmerge v64.0.0 ('Willows') 64-bit
Writing library                          : libebml v1.4.2 + libmatroska v1.6.4
Attachments                              : CrocodileFeet-Regular.ttf / Emotion Engine.otf / Paper Johnny Eins.ttf / THERIFV2.TTF / yumindb.ttf / Corporate-Logo-Rounded.ttf

Video
ID                                       : 1
Format                                   : AVC
Format/Info                              : Advanced Video Codec
Format profile                           : Main@L4.1
Format settings                          : CABAC / 2 Ref Frames
Format settings, CABAC                   : Yes
Format settings, Reference frames        : 2 frames
Codec ID                                 : V_MPEG4/ISO/AVC
Duration                                 : 1 min 32 s
Bit rate                                 : 3 506 kb/s
Width                                    : 1 920 pixels
Height                                   : 1 080 pixels
Display aspect ratio                     : 16:9
Frame rate mode                          : Constant
Frame rate                               : 23.976 (24000/1001) FPS
Color space                              : YUV
Chroma subsampling                       : 4:2:0
Bit depth                                : 8 bits
Scan type                                : Progressive
Bits/(Pixel*Frame)                       : 0.071
Stream size                              : 38.5 MiB (60%)
Default                                  : Yes
Forced                                   : No

Audio
ID                                       : 2
Format                                   : AAC LC
Format/Info                              : Advanced Audio Codec Low Complexity
Codec ID                                 : A_AAC-2
Duration                                 : 1 min 32 s
Bit rate                                 : 233 kb/s
Channel(s)                               : 2 channels
Channel layout                           : L R
Sampling rate                            : 44.1 kHz
Frame rate                               : 43.066 FPS (1024 SPF)
Compression mode                         : Lossy
Delay relative to video                  : -46 ms
Stream size                              : 2.57 MiB (4%)
Language                                 : Japanese
Default                                  : Yes
Forced                                   : No

Text
ID                                       : 3
Format                                   : ASS
Codec ID                                 : S_TEXT/ASS
Codec ID/Info                            : Advanced Sub Station Alpha
Duration                                 : 1 min 25 s
Bit rate                                 : 366 b/s
Count of elements                        : 37
Compression mode                         : Lossless
Stream size                              : 3.84 KiB (0%)
Default                                  : Yes
Forced                                   : No

Other Files in this Torrent
Extra/Date A Live S4 - ED (BD 1080p).mkv
beta
Anime DDL+NZB mirror
Current Time: 20/04/2024 09:43



About/FAQs

Discord