File Size16.05 MB (16,834,487 bytes)
DownloadAnonFiles | ClickNUpload | DropAPK | Free | MultiUp
  • BdUpload
  • DownAce
  • Fichier
  • FileCloud
  • Filerio
  • FilesCdn
  • IndiShare
  • Kbagi
  • Turbobit
  • UpToBox
  • Uppit
| SolidFiles | ZippyShare
HashesCRC32: 3F63B032, MD5: 50757153F25DF9DAA0B207D0BA02BB2E, SHA1: FAA184C446B0D782E1DFAF16CC821FD648EE5B66, SHA256: 565123DCB2636DA212F61DF3257CFD62458129D03AB1660C0239E527F69FB6A9, ED2K: D5301D9CD4ADC2D882BC7B0A8318BFC6
Screenshots
screenshot
Additional Info
General
Unique ID                                : 1948660964668604549615165066509207096 (0x1774C673DACC00894CF10EC5A76C638)
Complete name                            : Character Preview - Yui.mkv
Format                                   : Matroska
Format version                           : Version 2
File size                                : 16.1 MiB
Duration                                 : 29 s 940 ms
Overall bit rate                         : 4 498 kb/s
Encoded date                             : UTC 2021-05-08 21:50:47
Writing application                      : mkvmerge v42.0.0 ('Overtime') 64-bit
Writing library                          : libebml v1.3.10 + libmatroska v1.5.2

Video
ID                                       : 1
Format                                   : AVC
Format/Info                              : Advanced Video Codec
Format profile                           : High 10@L3.1
Format settings                          : CABAC / 4 Ref Frames
Format settings, CABAC                   : Yes
Format settings, ReFrames                : 4 frames
Codec ID                                 : V_MPEG4/ISO/AVC
Duration                                 : 29 s 905 ms
Bit rate                                 : 4 202 kb/s
Width                                    : 1 280 pixels
Height                                   : 720 pixels
Display aspect ratio                     : 16:9
Frame rate mode                          : Constant
Frame rate                               : 23.976 FPS
Color space                              : YUV
Chroma subsampling                       : 4:2:0
Bit depth                                : 10 bits
Scan type                                : Progressive
Bits/(Pixel*Frame)                       : 0.190
Stream size                              : 15.0 MiB (93%)
Writing library                          : x264 core 157 r2969 d4099dd
Encoding settings                        : cabac=1 / ref=3 / deblock=1:1:-1 / analyse=0x3:0x113 / me=hex / subme=7 / psy=1 / psy_rd=1.00:0.00 / mixed_ref=1 / me_range=16 / chroma_me=1 / trellis=1 / 8x8dct=1 / cqm=0 / deadzone=21,11 / fast_pskip=1 / chroma_qp_offset=-2 / threads=6 / lookahead_threads=1 / sliced_threads=0 / nr=0 / decimate=1 / interlaced=0 / bluray_compat=0 / constrained_intra=0 / bframes=3 / b_pyramid=2 / b_adapt=1 / b_bias=0 / direct=1 / weightb=1 / open_gop=0 / weightp=2 / keyint=240 / keyint_min=23 / scenecut=40 / intra_refresh=0 / rc_lookahead=40 / rc=crf / mbtree=1 / crf=16.0 / qcomp=0.60 / qpmin=0 / qpmax=69 / qpstep=4 / ip_ratio=1.40 / aq=1:1.00
Default                                  : Yes
Forced                                   : No

Audio
ID                                       : 2
Format                                   : AAC LC
Format/Info                              : Advanced Audio Codec Low Complexity
Codec ID                                 : A_AAC-2
Duration                                 : 29 s 931 ms
Bit rate                                 : 297 kb/s
Channel(s)                               : 2 channels
Channel layout                           : L R
Sampling rate                            : 48.0 kHz
Frame rate                               : 46.875 FPS (1024 SPF)
Compression mode                         : Lossy
Delay relative to video                  : 9 ms
Stream size                              : 1.06 MiB (7%)
Language                                 : Japanese
Default                                  : Yes
Forced                                   : No

Other Files in this Torrent
Bluray Extras/Character Preview - Yui.mkv
beta
Anime DDL+NZB mirror
Current Time: 05/12/2021 10:37



About/FAQs

Discord