File Size52.78 MB (55,339,606 bytes)
DownloadAnonFiles | ClickNUpload | DropAPK | Free | MultiUp
  • BdUpload
  • DownAce
  • Fichier
  • FileCloud
  • Filerio
  • FilesCdn
  • IndiShare
  • Kbagi
  • Turbobit
  • UpToBox
  • Uppit
| SolidFiles | ZippyShare
HashesCRC32: BC47D6E5, MD5: D82DB6A629F5C33AE84FF5AD5A65AA87, SHA1: 9B0EA9B369D45A8DA78DB12B45D41B723971BA13, SHA256: BF34CA2A14AD5A5E275FD46F5CF30D196F98FCE41B9FADFFE36B470C56EBDDF3, ED2K: 2564583549D37F79FF71A71B51B1D9E6
Screenshots
screenshot
Additional Info
General
Unique ID                                : 46618493111328573512621330074932763115 (0x2312652AD03FDED4045F759B78C259EB)
Complete name                            : BD Commercial 2.mkv
Format                                   : Matroska
Format version                           : Version 4
File size                                : 52.8 MiB
Duration                                 : 30 s 30 ms
Overall bit rate mode                    : Variable
Overall bit rate                         : 14.7 Mb/s
Encoded date                             : UTC 2021-05-31 07:03:15
Writing application                      : mkvmerge v57.0.0 ('Till The End') 64-bit
Writing library                          : libebml v1.4.2 + libmatroska v1.6.3

Video
ID                                       : 1
Format                                   : AVC
Format/Info                              : Advanced Video Codec
Format profile                           : High@L6.2
Format settings                          : CABAC / 4 Ref Frames
Format settings, CABAC                   : Yes
Format settings, ReFrames                : 4 frames
Codec ID                                 : V_MPEG4/ISO/AVC
Duration                                 : 30 s 30 ms
Bit rate                                 : 14.0 Mb/s
Width                                    : 1 920 pixels
Height                                   : 1 080 pixels
Display aspect ratio                     : 16:9
Frame rate mode                          : Constant
Frame rate                               : 59.940 (60000/1001) FPS
Color space                              : YUV
Chroma subsampling                       : 4:2:0
Bit depth                                : 8 bits
Scan type                                : MBAFF
Scan type, store method                  : Interleaved fields
Scan order                               : Top Field First
Bits/(Pixel*Frame)                       : 0.113
Stream size                              : 50.1 MiB (95%)
Writing library                          : x264 core 157
Encoding settings                        : opencl=1 / cabac=1 / ref=4 / deblock=1:-2:-2 / analyse=0x3:0x113 / me=umh / subme=9 / psy=1 / psy_rd=0.70:0.00 / mixed_ref=0 / me_range=32 / chroma_me=1 / trellis=2 / 8x8dct=1 / cqm=0 / deadzone=21,11 / fast_pskip=1 / chroma_qp_offset=-2 / threads=8 / lookahead_threads=1 / sliced_threads=0 / nr=0 / decimate=1 / interlaced=tff / bluray_compat=0 / constrained_intra=0 / bframes=9 / b_pyramid=2 / b_adapt=2 / b_bias=0 / direct=3 / weightb=1 / open_gop=0 / weightp=0 / keyint=250 / keyint_min=23 / scenecut=40 / intra_refresh=0 / rc_lookahead=40 / rc=crf / mbtree=1 / crf=16.0 / qcomp=0.70 / qpmin=10 / qpmax=20 / qpstep=4 / ip_ratio=1.40 / aq=1:1.00
Default                                  : Yes
Forced                                   : No

Audio
ID                                       : 2
Format                                   : FLAC
Format/Info                              : Free Lossless Audio Codec
Codec ID                                 : A_FLAC
Duration                                 : 30 s 30 ms
Bit rate mode                            : Variable
Bit rate                                 : 748 kb/s
Channel(s)                               : 2 channels
Channel layout                           : L R
Sampling rate                            : 48.0 kHz
Frame rate                               : 10.423 FPS (4605 SPF)
Bit depth                                : 16 bits
Compression mode                         : Lossless
Stream size                              : 2.68 MiB (5%)
Writing library                          : Lavf58.76.100
Language                                 : Japanese
Default                                  : Yes
Forced                                   : No

Other Files in this Torrent
Bluray Extras/BD Commercial 2.mkv
beta
Anime DDL+NZB mirror
Current Time: 05/12/2021 10:50



About/FAQs

Discord