File Size22.59 MB (23,689,366 bytes)
DownloadAnonFiles | ClickNUpload | DropAPK | Free | MultiUp
  • BdUpload
  • DownAce
  • Fichier
  • FileCloud
  • Filerio
  • FilesCdn
  • IndiShare
  • Kbagi
  • Turbobit
  • UpToBox
  • Uppit
| SolidFiles | ZippyShare
HashesCRC32: E8DC91D7, MD5: 7266AFB1854B60995DAA6B17B716347A, SHA1: DED7DB0D53DBD703ADBFDA148A308335EF111AB6, SHA256: 9969A92B34EB97AD748991A6042CFE6FE9958B9BEF86F23C1C6B78C8E88CA491, ED2K: 5F95B2EA8C6B05EE25031C18C85EF1A1
Screenshots
screenshot
Additional Info
General
Unique ID                                : 333259622302824726820054355447075720043 (0xFAB777F52CB9336EDD2F1964A89E4B6B)
Complete name                            : BD Commercial 3.mkv
Format                                   : Matroska
Format version                           : Version 4
File size                                : 22.6 MiB
Duration                                 : 15 s 15 ms
Overall bit rate mode                    : Variable
Overall bit rate                         : 12.6 Mb/s
Encoded date                             : UTC 2021-05-31 05:54:50
Writing application                      : mkvmerge v57.0.0 ('Till The End') 64-bit
Writing library                          : libebml v1.4.2 + libmatroska v1.6.3

Video
ID                                       : 1
Format                                   : AVC
Format/Info                              : Advanced Video Codec
Format profile                           : High@L6.2
Format settings                          : CABAC / 4 Ref Frames
Format settings, CABAC                   : Yes
Format settings, ReFrames                : 4 frames
Codec ID                                 : V_MPEG4/ISO/AVC
Duration                                 : 15 s 15 ms
Bit rate                                 : 11.9 Mb/s
Width                                    : 1 920 pixels
Height                                   : 1 080 pixels
Display aspect ratio                     : 16:9
Frame rate mode                          : Constant
Frame rate                               : 59.940 (60000/1001) FPS
Color space                              : YUV
Chroma subsampling                       : 4:2:0
Bit depth                                : 8 bits
Scan type                                : MBAFF
Scan type, store method                  : Interleaved fields
Scan order                               : Top Field First
Bits/(Pixel*Frame)                       : 0.096
Stream size                              : 21.3 MiB (94%)
Writing library                          : x264 core 157
Encoding settings                        : opencl=1 / cabac=1 / ref=4 / deblock=1:-2:-2 / analyse=0x3:0x113 / me=umh / subme=9 / psy=1 / psy_rd=0.70:0.00 / mixed_ref=0 / me_range=32 / chroma_me=1 / trellis=2 / 8x8dct=1 / cqm=0 / deadzone=21,11 / fast_pskip=1 / chroma_qp_offset=-2 / threads=8 / lookahead_threads=1 / sliced_threads=0 / nr=0 / decimate=1 / interlaced=tff / bluray_compat=0 / constrained_intra=0 / bframes=9 / b_pyramid=2 / b_adapt=2 / b_bias=0 / direct=3 / weightb=1 / open_gop=0 / weightp=0 / keyint=250 / keyint_min=23 / scenecut=40 / intra_refresh=0 / rc_lookahead=40 / rc=crf / mbtree=1 / crf=16.0 / qcomp=0.70 / qpmin=10 / qpmax=20 / qpstep=4 / ip_ratio=1.40 / aq=1:1.00
Default                                  : Yes
Forced                                   : No

Audio
ID                                       : 2
Format                                   : FLAC
Format/Info                              : Free Lossless Audio Codec
Codec ID                                 : A_FLAC
Duration                                 : 15 s 15 ms
Bit rate mode                            : Variable
Bit rate                                 : 709 kb/s
Channel(s)                               : 2 channels
Channel layout                           : L R
Sampling rate                            : 48.0 kHz
Frame rate                               : 10.456 FPS (4591 SPF)
Bit depth                                : 16 bits
Compression mode                         : Lossless
Stream size                              : 1.27 MiB (6%)
Writing library                          : Lavf58.76.100
Language                                 : Japanese
Default                                  : Yes
Forced                                   : No

Other Files in this Torrent
Bluray Extras/BD Commercial 3.mkv
beta
Anime DDL+NZB mirror
Current Time: 05/12/2021 11:07



About/FAQs

Discord