[Bereke Scrubs] Superior Defender Gundam Force - 07 - Go! Gunbike! [480p] [E995EB67].mkv


File Size303.3 MB (318,005,078 bytes)
DownloadAnonFiles | ClickNUpload | DownloadGG | KrakenFiles | MultiUp
  • BdUpload
  • DownAce
  • Fichier
  • FileCloud
  • Filerio
  • FilesCdn
  • IndiShare
  • Kbagi
  • Turbobit
  • UpToBox
  • Uppit
| ZippyShare
HashesCRC32: E995EB67, MD5: 669824D65AFF8B6805DDE9ECFB1FCC88, SHA1: B332A82E7EADD4B16313237ED6E9A356445873B8, SHA256: 89237D01217864853B686CB64DDDAFBD691DE89881D04850DBEE0BE189E2B694, ED2K: A84E319B678C6AE7D6AC32F2FACD4C88
Screenshots
screenshotscreenshotscreenshotscreenshotscreenshot
SubtitlesAll Attachments | English - Songs and Next On [eng, ASS]
Additional Info
General
Unique ID                                : 335342002409969981162884917703242809021 (0xFC48853946ADDA0F876392CA06A5FEBD)
Complete name                            : [Bereke Scrubs] Superior Defender Gundam Force - 07 - Go! Gunbike! [480p] [E995EB67].mkv
Format                                   : Matroska
Format version                           : Version 4
File size                                : 303 MiB
Duration                                 : 23 min 37 s
Overall bit rate                         : 1 795 kb/s
Encoded date                             : UTC 2023-01-10 22:59:10
Writing application                      : mkvmerge v73.0.0 ('25 or 6 to 4') 64-bit
Writing library                          : libebml v1.4.4 + libmatroska v1.7.1
Attachments                              : OpenSans-Bold.ttf / OpenSans-BoldItalic.ttf / OpenSans-ExtraBold.ttf / Roboto-Black_0.ttf / Roboto-BlackItalic_0.ttf / Roboto-Bold_0.ttf / Roboto-BoldItalic_0.ttf

Video
ID                                       : 1
Format                                   : AVC
Format/Info                              : Advanced Video Codec
Format profile                           : High@L3.2
Format settings                          : CABAC / 16 Ref Frames
Format settings, CABAC                   : Yes
Format settings, Reference frames        : 16 frames
Codec ID                                 : V_MPEG4/ISO/AVC
Duration                                 : 23 min 37 s
Bit rate                                 : 1 428 kb/s
Width                                    : 640 pixels
Height                                   : 480 pixels
Display aspect ratio                     : 4:3
Frame rate mode                          : Constant
Frame rate                               : 29.970 (30000/1001) FPS
Color space                              : YUV
Chroma subsampling                       : 4:2:0
Bit depth                                : 8 bits
Scan type                                : Progressive
Bits/(Pixel*Frame)                       : 0.155
Stream size                              : 241 MiB (80%)
Writing library                          : x264 core 164 r3095 baee400
Encoding settings                        : cabac=1 / ref=16 / deblock=1:1:1 / analyse=0x3:0x133 / me=umh / subme=10 / psy=1 / psy_rd=0.40:0.00 / mixed_ref=1 / me_range=24 / chroma_me=1 / trellis=2 / 8x8dct=1 / cqm=0 / deadzone=21,11 / fast_pskip=1 / chroma_qp_offset=-2 / threads=15 / lookahead_threads=3 / sliced_threads=0 / nr=0 / decimate=1 / interlaced=0 / bluray_compat=0 / constrained_intra=0 / bframes=10 / b_pyramid=2 / b_adapt=2 / b_bias=0 / direct=3 / weightb=1 / open_gop=0 / weightp=2 / keyint=250 / keyint_min=25 / scenecut=40 / intra_refresh=0 / rc_lookahead=60 / rc=crf / mbtree=1 / crf=19.0 / qcomp=0.60 / qpmin=0 / qpmax=69 / qpstep=4 / ip_ratio=1.40 / aq=1:0.60
Default                                  : No
Forced                                   : No

Audio #1
ID                                       : 2
Format                                   : AAC LC
Format/Info                              : Advanced Audio Codec Low Complexity
Codec ID                                 : A_AAC-2
Duration                                 : 23 min 37 s
Bit rate                                 : 177 kb/s
Channel(s)                               : 2 channels
Channel layout                           : L R
Sampling rate                            : 48.0 kHz
Frame rate                               : 46.875 FPS (1024 SPF)
Compression mode                         : Lossy
Delay relative to video                  : -43 ms
Stream size                              : 29.9 MiB (10%)
Title                                    : English - Dub
Language                                 : English
Default                                  : Yes
Forced                                   : No

Audio #2
ID                                       : 3
Format                                   : AAC LC
Format/Info                              : Advanced Audio Codec Low Complexity
Codec ID                                 : A_AAC-2
Duration                                 : 23 min 37 s
Bit rate                                 : 179 kb/s
Channel(s)                               : 2 channels
Channel layout                           : L R
Sampling rate                            : 48.0 kHz
Frame rate                               : 46.875 FPS (1024 SPF)
Compression mode                         : Lossy
Delay relative to video                  : -43 ms
Stream size                              : 30.3 MiB (10%)
Title                                    : Japanese
Language                                 : Japanese
Default                                  : No
Forced                                   : No

Text
ID                                       : 4
Format                                   : ASS
Codec ID                                 : S_TEXT/ASS
Codec ID/Info                            : Advanced Sub Station Alpha
Duration                                 : 23 min 28 s
Bit rate                                 : 10 b/s
Count of elements                        : 37
Compression mode                         : Lossless
Stream size                              : 1.84 KiB (0%)
Title                                    : English - Songs and Next On
Language                                 : English
Default                                  : Yes
Forced                                   : No

Other Files in this Torrent
[Bereke Scrubs] Superior Defender Gundam Force - 07 - Go! Gunbike! [480p] [E995EB67].mkv
beta
Anime DDL+NZB mirror
Current Time: 12/07/2024 22:56



About/FAQs

Discord