[Asakura] Death March kara Hajimaru Isekai Kyousoukyoku 02 - Exploring a City That Started With a Death March [0E595F8E].mkv


File Size349.5 MB (366,470,428 bytes)
DownloadClickNUpload | Jheberg | MultiUp
  • BdUpload
  • DownAce
  • Fichier
  • FileCloud
  • Filerio
  • FilesCdn
  • IndiShare
  • Kbagi
  • Turbobit
  • UpToBox
  • Uppit
| OpenLoad | SolidFiles | ZippyShare
Sendspace: Part1, Part2
HashesCRC32: 0E595F8E, MD5: 6A2932764A13A0EA970F29687885AD14, SHA1: 3DB689B2D0A052855D271A3AB6ED923501C6530C, SHA256: 449C47243ACC6DAF6E991703EB0CB6BF32213F53F68E359DA0313E593C23C78D, ED2K: BED05D4C3021B99E36DA9BA8C91964DA
Screenshots
screenshotscreenshotscreenshotscreenshotscreenshot
SubtitlesAll Attachments | LostYears edit [eng, ASS]
Additional Info
General
Unique ID                                : 312461109101423735992301401648813062142 (0xEB11D215F42A18BEF117FC62841837FE)
Complete name                            : [Asakura] Death March kara Hajimaru Isekai Kyousoukyoku 02 - Exploring a City That Started With a Death March [0E595F8E].mkv
Format                                   : Matroska
Format version                           : Version 4
File size                                : 349 MiB
Duration                                 : 23 min 41 s
Overall bit rate                         : 2 062 kb/s
Movie name                               : Death March kara Hajimaru Isekai Kyousoukyoku 02 - Exploring a City That Started With a Death March
Encoded date                             : UTC 2019-06-23 11:35:44
Writing application                      : mkvmerge v35.0.0 ('All The Love In The World') 64-bit
Writing library                          : libebml v1.3.9 + libmatroska v1.5.2
Attachments                              : Arsenal-Regular.otf / Artifika-Regular.ttf / Bougan Book SSi Book.ttf / Comfortaa-Bold.ttf / Comfortaa-Regular.ttf / fggym.TTF / Gandhisans-Bold.otf / Gandhisans-Bolditalic.otf / VAGRoundedStd-Bold.otf / AGRounded-Book.ttf / ARISTA2.0.TTF / Arno Pro Semibold Display.ttf

Video
ID                                       : 1
Format                                   : AVC
Format/Info                              : Advanced Video Codec
Format profile                           : High 4:4:4 Predictive@L5
Format settings                          : CABAC / 16 Ref Frames
Format settings, CABAC                   : Yes
Format settings, ReFrames                : 16 frames
Codec ID                                 : V_MPEG4/ISO/AVC
Duration                                 : 23 min 40 s
Bit rate                                 : 1 891 kb/s
Width                                    : 1 280 pixels
Height                                   : 720 pixels
Display aspect ratio                     : 16:9
Frame rate mode                          : Constant
Frame rate                               : 23.976 (24000/1001) FPS
Color space                              : YUV
Chroma subsampling                       : 4:4:4
Bit depth                                : 10 bits
Scan type                                : Progressive
Bits/(Pixel*Frame)                       : 0.086
Stream size                              : 320 MiB (92%)
Writing library                          : x264 core 152 r2851 ba24899 (DJATOM's build)
Encoding settings                        : cabac=1 / ref=16 / deblock=1:-1:-1 / analyse=0x1:0x111 / me=umh / subme=10 / psy=1 / psy_rd=0.80:0.00 / mixed_ref=1 / me_range=32 / chroma_me=1 / trellis=2 / 8x8dct=0 / cqm=0 / deadzone=21,11 / fast_pskip=1 / chroma_qp_offset=4 / threads=12 / lookahead_threads=3 / sliced_threads=0 / nr=0 / decimate=1 / interlaced=0 / bluray_compat=0 / constrained_intra=0 / bframes=16 / b_pyramid=2 / b_adapt=2 / b_bias=0 / direct=1 / weightb=1 / open_gop=0 / weightp=2 / keyint=240 / keyint_min=23 / scenecut=40 / intra_refresh=0 / rc_lookahead=40 / rc=crf / mbtree=1 / crf=14.0000 / qcomp=0.70 / qpmin=0 / qpmax=81 / qpstep=4 / ip_ratio=1.40 / aq=3:0.80
Language                                 : Japanese
Default                                  : Yes
Forced                                   : No
Color range                              : Limited
Color primaries                          : BT.709
Transfer characteristics                 : BT.709
Matrix coefficients                      : BT.709

Audio
ID                                       : 2
Format                                   : AAC LC
Format/Info                              : Advanced Audio Codec Low Complexity
Codec ID                                 : A_AAC-2
Duration                                 : 23 min 39 s
Bit rate                                 : 127 kb/s
Channel(s)                               : 2 channels
Channel layout                           : L R
Sampling rate                            : 48.0 kHz
Frame rate                               : 46.875 FPS (1024 SPF)
Compression mode                         : Lossy
Stream size                              : 21.5 MiB (6%)
Title                                    : AAC 2.0
Language                                 : Japanese
Default                                  : Yes
Forced                                   : No

Text
ID                                       : 3
Format                                   : ASS
Codec ID                                 : S_TEXT/ASS
Codec ID/Info                            : Advanced Sub Station Alpha
Duration                                 : 23 min 33 s
Bit rate                                 : 10.4 kb/s
Count of elements                        : 12381
Compression mode                         : Lossless
Stream size                              : 1.75 MiB (1%)
Title                                    : LostYears edit
Language                                 : English
Default                                  : Yes
Forced                                   : No

Menu
00:00:00.000                             : en:Intro
00:00:35.035                             : en:OP
00:02:05.000                             : en:A
00:13:13.001                             : en:B
00:22:04.990                             : en:ED
00:23:34.997                             : en:Preview

Other Files in this Torrent
[Asakura] Death March kara Hajimaru Isekai Kyousoukyoku 02 - Exploring a City That Started With a Death March [0E595F8E].mkv
beta
Anime DDL+NZB mirror
Current Time: 15/11/2019 22:38



About/FAQs