[Asakura] Death March kara Hajimaru Isekai Kyousoukyoku 01 - The Catastrophe That Started with a Death March [B35A6E02].mkv


File Size431.9 MB (452,885,685 bytes)
DownloadClickNUpload | Jheberg | MultiUp
  • BdUpload
  • DownAce
  • Fichier
  • FileCloud
  • Filerio
  • FilesCdn
  • IndiShare
  • Kbagi
  • Turbobit
  • UpToBox
  • Uppit
| OpenLoad | SolidFiles | ZippyShare
Sendspace: Part1, Part2
HashesCRC32: B35A6E02, MD5: 4D193C6C4BABD3C5B25C962495E5D8C9, SHA1: 05BB96D4D1E21C0C3E63DBF521AF18F44265BB97, SHA256: 06F7725C684DABDEE8E96DAE73BBDBF64D2477DB67B43F9A86D86AF3137A9326, ED2K: 7D63CBD86DE5A877421664D1A7AE96D2
Screenshots
screenshotscreenshotscreenshotscreenshotscreenshot
SubtitlesAll Attachments | LostYears edit [eng, ASS]
Additional Info
General
Unique ID                                : 238734397022634788240867676730346391648 (0xB39A9288AEC4C01FE7992E6FB86B4860)
Complete name                            : [Asakura] Death March kara Hajimaru Isekai Kyousoukyoku 01 - The Catastrophe That Started with a Death March [B35A6E02].mkv
Format                                   : Matroska
Format version                           : Version 4
File size                                : 432 MiB
Duration                                 : 23 min 40 s
Overall bit rate                         : 2 551 kb/s
Movie name                               : Death March kara Hajimaru Isekai Kyousoukyoku 01 - The Catastrophe That Started with a Death March
Encoded date                             : UTC 2019-06-23 11:35:44
Writing application                      : mkvmerge v35.0.0 ('All The Love In The World') 64-bit
Writing library                          : libebml v1.3.9 + libmatroska v1.5.2
Attachments                              : Artifika-Regular.ttf / Asap-Regular.otf / Bougan Book SSi Book.ttf / Comfortaa-Bold.ttf / Comfortaa-Regular.ttf / Coprgtb.TTF / fggym.TTF / Gandhisans-Bold.otf / Gandhisans-Bolditalic.otf / Lato-Regular.ttf / RockoUltraFLF.ttf / VAGRoundedStd-Bold.otf / AGRounded-Book.ttf / arial.ttf / ARISTA2.0.TTF / Arno Pro Semibold Display.ttf / Arsenal-Regular.otf

Video
ID                                       : 1
Format                                   : AVC
Format/Info                              : Advanced Video Codec
Format profile                           : High 4:4:4 Predictive@L5
Format settings                          : CABAC / 16 Ref Frames
Format settings, CABAC                   : Yes
Format settings, ReFrames                : 16 frames
Codec ID                                 : V_MPEG4/ISO/AVC
Duration                                 : 23 min 40 s
Bit rate                                 : 2 366 kb/s
Width                                    : 1 280 pixels
Height                                   : 720 pixels
Display aspect ratio                     : 16:9
Frame rate mode                          : Constant
Frame rate                               : 23.976 (24000/1001) FPS
Color space                              : YUV
Chroma subsampling                       : 4:4:4
Bit depth                                : 10 bits
Scan type                                : Progressive
Bits/(Pixel*Frame)                       : 0.107
Stream size                              : 400 MiB (93%)
Writing library                          : x264 core 152 r2851 ba24899 (DJATOM's build)
Encoding settings                        : cabac=1 / ref=16 / deblock=1:-1:-1 / analyse=0x1:0x111 / me=umh / subme=10 / psy=1 / psy_rd=0.80:0.00 / mixed_ref=1 / me_range=32 / chroma_me=1 / trellis=2 / 8x8dct=0 / cqm=0 / deadzone=21,11 / fast_pskip=1 / chroma_qp_offset=4 / threads=12 / lookahead_threads=3 / sliced_threads=0 / nr=0 / decimate=1 / interlaced=0 / bluray_compat=0 / constrained_intra=0 / bframes=16 / b_pyramid=2 / b_adapt=2 / b_bias=0 / direct=1 / weightb=1 / open_gop=0 / weightp=2 / keyint=240 / keyint_min=23 / scenecut=40 / intra_refresh=0 / rc_lookahead=40 / rc=crf / mbtree=1 / crf=14.0000 / qcomp=0.70 / qpmin=0 / qpmax=81 / qpstep=4 / ip_ratio=1.40 / aq=3:0.80
Language                                 : Japanese
Default                                  : Yes
Forced                                   : No
Color range                              : Limited
Color primaries                          : BT.709
Transfer characteristics                 : BT.709
Matrix coefficients                      : BT.709

Audio
ID                                       : 2
Format                                   : AAC LC
Format/Info                              : Advanced Audio Codec Low Complexity
Codec ID                                 : A_AAC-2
Duration                                 : 23 min 39 s
Bit rate                                 : 122 kb/s
Channel(s)                               : 2 channels
Channel layout                           : L R
Sampling rate                            : 48.0 kHz
Frame rate                               : 46.875 FPS (1024 SPF)
Compression mode                         : Lossy
Stream size                              : 20.7 MiB (5%)
Title                                    : AAC 2.0
Language                                 : Japanese
Default                                  : Yes
Forced                                   : No

Text
ID                                       : 3
Format                                   : ASS
Codec ID                                 : S_TEXT/ASS
Codec ID/Info                            : Advanced Sub Station Alpha
Duration                                 : 23 min 31 s
Bit rate                                 : 17.4 kb/s
Count of elements                        : 20450
Compression mode                         : Lossless
Stream size                              : 2.94 MiB (1%)
Title                                    : LostYears edit
Language                                 : English
Default                                  : Yes
Forced                                   : No

Menu
00:00:00.000                             : en:Intro
00:01:44.021                             : en:OP
00:03:13.985                             : en:A
00:12:42.011                             : en:B
00:22:04.990                             : en:ED
00:23:34.997                             : en:Preview

Other Files in this Torrent
[Asakura] Death March kara Hajimaru Isekai Kyousoukyoku 01 - The Catastrophe That Started with a Death March [B35A6E02].mkv
beta
Anime DDL+NZB mirror
Current Time: 15/11/2019 10:03



About/FAQs