[Asakura] Death March kara Hajimaru Isekai Kyousoukyoku 12 - A Trip to the Underworld That Started With a Death March [111FF976].mkv


File Size477.9 MB (501,140,861 bytes)
DownloadClickNUpload | Jheberg | MultiUp
  • BdUpload
  • DownAce
  • Fichier
  • FileCloud
  • Filerio
  • FilesCdn
  • IndiShare
  • Kbagi
  • Turbobit
  • UpToBox
  • Uppit
| OpenLoad | SolidFiles | ZippyShare
Sendspace: Part1, Part2
HashesCRC32: 111FF976, MD5: 637816E963B22CE0A7CE9A3700A096ED, SHA1: 082CD9E4B8F2FBB032234DCAFC01AD58BA6AE104, SHA256: 6F0ABB2963C091A41065107795BCB08ECEBAC1A435DAE4B41AEB8CF711B0145B, ED2K: 80F20FE9CE400C266AFCF268025A89B0
Screenshots
screenshotscreenshotscreenshotscreenshotscreenshot
SubtitlesAll Attachments | LostYears edit [eng, ASS]
Additional Info
General
Unique ID                                : 78961581266612279505518835572453951770 (0x3B6772879C50052D259064AA5198491A)
Complete name                            : [Asakura] Death March kara Hajimaru Isekai Kyousoukyoku 12 - A Trip to the Underworld That Started With a Death March [111FF976].mkv
Format                                   : Matroska
Format version                           : Version 4
File size                                : 478 MiB
Duration                                 : 23 min 40 s
Overall bit rate                         : 2 823 kb/s
Movie name                               : Death March kara Hajimaru Isekai Kyousoukyoku 12 - A Trip to the Underworld That Started With a Death March
Encoded date                             : UTC 2019-06-23 11:35:44
Writing application                      : mkvmerge v35.0.0 ('All The Love In The World') 64-bit
Writing library                          : libebml v1.3.9 + libmatroska v1.5.2
Attachments                              : Comfortaa-Bold.ttf / Comfortaa-Regular.ttf / fggym.TTF / Gandhisans-Bold.otf / Gandhisans-Bolditalic.otf / VAGRoundedStd-Bold.otf / Arno Pro Semibold Display.ttf / Arsenal-Regular.otf / Artifika-Regular.ttf / Bougan Book SSi Book.ttf

Video
ID                                       : 1
Format                                   : AVC
Format/Info                              : Advanced Video Codec
Format profile                           : High 4:4:4 Predictive@L5
Format settings                          : CABAC / 16 Ref Frames
Format settings, CABAC                   : Yes
Format settings, ReFrames                : 16 frames
Codec ID                                 : V_MPEG4/ISO/AVC
Duration                                 : 23 min 40 s
Bit rate                                 : 2 658 kb/s
Width                                    : 1 280 pixels
Height                                   : 720 pixels
Display aspect ratio                     : 16:9
Frame rate mode                          : Constant
Frame rate                               : 23.976 (24000/1001) FPS
Color space                              : YUV
Chroma subsampling                       : 4:4:4
Bit depth                                : 10 bits
Scan type                                : Progressive
Bits/(Pixel*Frame)                       : 0.120
Stream size                              : 450 MiB (94%)
Writing library                          : x264 core 155 r2901M 7d0ff22 (DJATOM's mod)
Encoding settings                        : cabac=1 / ref=16 / deblock=1:-1:-1 / analyse=0x1:0x111 / me=umh / subme=10 / psy=1 / fade_compensate=0.00 / psy_rd=0.80:0.00 / mixed_ref=1 / me_range=32 / chroma_me=1 / trellis=2 / 8x8dct=0 / cqm=0 / deadzone=21,11 / fast_pskip=1 / chroma_qp_offset=4 / threads=22 / lookahead_threads=5 / sliced_threads=0 / nr=0 / decimate=1 / interlaced=0 / bluray_compat=0 / constrained_intra=0 / bframes=16 / b_pyramid=2 / b_adapt=2 / b_bias=0 / direct=1 / weightb=1 / open_gop=0 / weightp=2 / keyint=240 / keyint_min=23 / scenecut=40 / intra_refresh=0 / rc=crf / mbtree=0 / crf=14.0000 / qcomp=0.70 / qpmin=0 / qpmax=81 / qpstep=4 / ip_ratio=1.40 / pb_ratio=1.30 / aq=3:0.80
Language                                 : Japanese
Default                                  : Yes
Forced                                   : No
Color range                              : Limited
Color primaries                          : BT.709
Transfer characteristics                 : BT.709
Matrix coefficients                      : BT.709

Audio
ID                                       : 2
Format                                   : AAC LC
Format/Info                              : Advanced Audio Codec Low Complexity
Codec ID                                 : A_AAC-2
Duration                                 : 23 min 40 s
Bit rate                                 : 126 kb/s
Channel(s)                               : 2 channels
Channel layout                           : L R
Sampling rate                            : 48.0 kHz
Frame rate                               : 46.875 FPS (1024 SPF)
Compression mode                         : Lossy
Delay relative to video                  : 20 ms
Stream size                              : 21.3 MiB (4%)
Title                                    : AAC 2.0
Language                                 : Japanese
Default                                  : Yes
Forced                                   : No

Text
ID                                       : 3
Format                                   : ASS
Codec ID                                 : S_TEXT/ASS
Codec ID/Info                            : Advanced Sub Station Alpha
Duration                                 : 23 min 28 s
Bit rate                                 : 5 483 b/s
Count of elements                        : 6970
Compression mode                         : Lossless
Stream size                              : 943 KiB (0%)
Title                                    : LostYears edit
Language                                 : English
Default                                  : Yes
Forced                                   : No

Menu
00:00:00.000                             : :Intro
00:01:18.996                             : :Opening
00:02:49.044                             : :Part A
00:14:43.049                             : :Part B

Other Files in this Torrent
[Asakura] Death March kara Hajimaru Isekai Kyousoukyoku 12 - A Trip to the Underworld That Started With a Death March [111FF976].mkv
beta
Anime DDL+NZB mirror
Current Time: 22/11/2019 10:50



About/FAQs