[-__-'] Net-juu no Susume - 04 [BD 1080p] [ABC6D741].mkv


File Size434.2 MB (455,239,800 bytes)
DownloadClickNUpload | Jheberg | MultiUp
  • BdUpload
  • DownAce
  • Fichier
  • FileCloud
  • Filerio
  • FilesCdn
  • IndiShare
  • Kbagi
  • Turbobit
  • UpToBox
  • Uppit
| SolidFiles | UploadFiles | ZippyShare
HashesCRC32: ABC6D741, MD5: 1C47FA7503522A585DE56AFBB88BE745, SHA1: 6FC7815B2484F8B858EB89A9E7415255E5A6889E, SHA256: 3922F10CE5D92B303FB40873CCF7B0B2FA55A89F648CD3C4F29DBD924ECB21F7, ED2K: CE7293AECD383670FBE717640CC0D482
Screenshots
screenshotscreenshotscreenshotscreenshotscreenshot
SubtitlesAll Attachments | eng [ASS]
Additional Info
General
Unique ID                                : 239005495264229745262381442076521287350 (0xB3CEC8B58D0D50D32BAAB6B266684EB6)
Complete name                            : [-__-'] Net-juu no Susume - 04 [BD 1080p] [ABC6D741].mkv
Format                                   : Matroska
Format version                           : Version 4
File size                                : 434 MiB
Duration                                 : 24 min 21 s
Overall bit rate                         : 2 492 kb/s
Encoded date                             : UTC 2019-12-29 08:15:28
Writing application                      : mkvmerge v41.0.0 ('Smarra') 64-bit
Writing library                          : libebml v1.3.9 + libmatroska v1.5.2
Attachments                              : Angella_demo.otf / FOTManyoSoshoStdStripped-EB2 (1)_0.otf / Hand Of Sean Pro.otf / a song for jennifer bold.ttf / AbelBecker Bold_0.ttf / Aero Matics Bold.ttf / AeroDB Normal.ttf / AGATA.TTF / AGENCYB.TTF / AGENCYR.TTF / Aller_Rg.ttf / Antipasto.ttf / ARCENA.ttf / BuckeyeSSK-Bold.ttf / ChalkDustExtended.ttf / fc_fl_en.ttf / GARFIELD the CAT.ttf / H_IMB11.TTF / handsean.ttf / HannaHandwriting.ttf / Hira v8_0.ttf / HTOWERT.TTF / Insaniburger.ttf / LTFinnegan Medium.ttf / LTFinnegan MediumItalic.ttf / SafranDPSemiBoldFinal.ttf / SafranDPSemiBoldItalicFinalv2.ttf

Video
ID                                       : 1
Format                                   : HEVC
Format/Info                              : High Efficiency Video Coding
Format profile                           : Main 10@L4@Main
Codec ID                                 : V_MPEGH/ISO/HEVC
Duration                                 : 24 min 21 s
Bit rate                                 : 2 075 kb/s
Width                                    : 1 920 pixels
Height                                   : 1 080 pixels
Display aspect ratio                     : 16:9
Frame rate mode                          : Constant
Frame rate                               : 23.976 FPS
Color space                              : YUV
Chroma subsampling                       : 4:2:0
Bit depth                                : 10 bits
Bits/(Pixel*Frame)                       : 0.042
Stream size                              : 361 MiB (83%)
Writing library                          : x265 3.2+9-971180b100f8:[Windows][GCC 9.2.1][64 bit] 10bit
Encoding settings                        : cpuid=1111039 / frame-threads=3 / numa-pools=12 / wpp / no-pmode / no-pme / no-psnr / no-ssim / log-level=2 / input-csp=1 / input-res=1920x1080 / interlace=0 / total-frames=0 / level-idc=0 / high-tier=1 / uhd-bd=0 / ref=4 / no-allow-non-conformance / no-repeat-headers / annexb / no-aud / no-hrd / info / hash=0 / no-temporal-layers / open-gop / min-keyint=23 / keyint=960 / gop-lookahead=0 / bframes=4 / b-adapt=2 / b-pyramid / bframe-bias=0 / rc-lookahead=25 / lookahead-slices=4 / scenecut=40 / radl=0 / no-splice / no-intra-refresh / ctu=64 / min-cu-size=8 / rect / no-amp / max-tu-size=32 / tu-inter-depth=1 / tu-intra-depth=1 / limit-tu=0 / rdoq-level=2 / dynamic-rd=0.00 / no-ssim-rd / signhide / no-tskip / nr-intra=0 / nr-inter=0 / no-constrained-intra / strong-intra-smoothing / max-merge=3 / limit-refs=3 / limit-modes / me=3 / subme=3 / merange=57 / temporal-mvp / no-frame-dup / no-hme / weightp / no-weightb / no-analyze-src-pics / deblock=0:0 / sao / no-sao-non-deblock / rd=4 / selective-sao=4 / no-early-skip / rskip / no-fast-intra / no-tskip-fast / no-cu-lossless / no-b-intra / no-splitrd-skip / rdpenalty=0 / psy-rd=2.00 / psy-rdoq=1.00 / no-rd-refine / no-lossless / cbqpoffs=0 / crqpoffs=0 / rc=crf / crf=15.6 / qcomp=0.60 / qpstep=4 / stats-write=0 / stats-read=0 / ipratio=1.40 / pbratio=1.30 / aq-mode=2 / aq-strength=1.10 / cutree / zone-count=2 / zones: / start-frame=0 / end-frame=2181 / bitrate-factor=0.500000 / zones: / start-frame=32496 / end-frame=34652 / bitrate-factor=0.500000 / no-strict-cbr / qg-size=32 / no-rc-grain / qpmax=69 / qpmin=0 / no-const-vbv / sar=0 / overscan=0 / videoformat=5 / range=0 / colorprim=2 / transfer=2 / colormatrix=2 / chromaloc=0 / display-window=0 / cll=0,0 / min-luma=0 / max-luma=1023 / log2-max-poc-lsb=8 / vui-timing-info / vui-hrd-info / slices=1 / no-opt-qp-pps / no-opt-ref-list-length-pps / no-multi-pass-opt-rps / scenecut-bias=0.05 / no-opt-cu-delta-qp / no-aq-motion / no-hdr / no-hdr-opt / no-dhdr10-opt / no-idr-recovery-sei / analysis-reuse-level=5 / scale-factor=0 / refine-intra=0 / refine-inter=0 / refine-mv=1 / refine-ctu-distortion=0 / no-limit-sao / ctu-info=0 / no-lowpass-dct / refine-analysis-type=0 / copy-pic=1 / max-ausize-factor=1.0 / no-dynamic-refine / no-single-sei / no-hevc-aq / no-svt / no-field / qp-adaptation-range=1.00
Language                                 : Japanese
Default                                  : Yes
Forced                                   : No
Color range                              : Limited

Audio #1
ID                                       : 2
Format                                   : AAC LC
Format/Info                              : Advanced Audio Codec Low Complexity
Codec ID                                 : A_AAC-2
Duration                                 : 24 min 21 s
Bit rate                                 : 246 kb/s
Channel(s)                               : 2 channels
Channel layout                           : L R
Sampling rate                            : 48.0 kHz
Frame rate                               : 46.875 FPS (1024 SPF)
Compression mode                         : Lossy
Delay relative to video                  : 20 ms
Stream size                              : 42.9 MiB (10%)
Language                                 : Japanese
Default                                  : Yes
Forced                                   : No

Audio #2
ID                                       : 3
Format                                   : AAC LC
Format/Info                              : Advanced Audio Codec Low Complexity
Codec ID                                 : A_AAC-2
Duration                                 : 24 min 21 s
Bit rate                                 : 147 kb/s
Channel(s)                               : 2 channels
Channel layout                           : L R
Sampling rate                            : 48.0 kHz
Frame rate                               : 46.875 FPS (1024 SPF)
Compression mode                         : Lossy
Stream size                              : 25.6 MiB (6%)
Language                                 : Japanese
Default                                  : No
Forced                                   : No

Text
ID                                       : 4
Format                                   : ASS
Codec ID                                 : S_TEXT/ASS
Codec ID/Info                            : Advanced Sub Station Alpha
Duration                                 : 24 min 7 s
Bit rate                                 : 6 216 b/s
Count of elements                        : 8536
Compression mode                         : Lossless
Stream size                              : 1.07 MiB (0%)
Language                                 : English
Default                                  : Yes
Forced                                   : No

Menu
00:00:00.000                             : :Chapter 01
00:01:31.007                             : :Chapter 02
00:14:26.615                             : :Chapter 03
00:22:35.354                             : :Chapter 04
00:24:05.318                             : :Chapter 05

Other Files in this Torrent
[-__-'] Net-juu no Susume - 04 [BD 1080p] [ABC6D741].mkv
beta
Anime DDL+NZB mirror
Current Time: 20/05/2024 02:53



About/FAQs

Discord