Digimon Tamers [DVDRip][Dub]


Source LinksNyaa | Torrent Download | Magnet Link (10.75 GB) | NZB
Date Submitted21/09/2019 08:17
Series (!)Digimon Tamers
Comment![alt text](https://i.imgur.com/EYg9Txq.jpg "Digimon Tamers English")Again, I'm not really sure where I got this DVDRip from, I just remember that at the time it was a DVDRip release so i grabbed it whilst I could since the prior one I had was like 16GB and not even half the quality. This is purely dub, no subtitles or Japanese Audio.Also at this point I don't know what else I have left to offer with digimon lol.. Apart from maybe the movie collection? But I'm not sure since the quality is all over the place. Anyhow.Examples:![alt text](https://i.imgur.com/5hLGYsH.png "Digimon Tamers English")![alt text](https://i.imgur.com/7mixHSG.png "Digimon Tamers English")![alt text](https://i.imgur.com/P7RiiJo.png "Digimon Tamers English")Info:GeneralFormat : MatroskaFormat version : Version 4File size : 216 MiBDuration : 21 min 2 sOverall bit rate : 1 432 kb/sEncoded date : UTC 2016-04-16 15:52:35Writing application : mkvmerge v8.9.0 ('Father Daughter') 64bitWriting library : libebml v1.3.3 + libmatroska v1.4.4 / Lavf55.19.104ARTIST : Digimon TamersVideoID : 1Format : AVCFormat/Info : Advanced Video CodecFormat profile : Baseline@L3Format settings : 2 Ref FramesFormat settings, CABAC : NoFormat settings, Reference frames : 2 framesCodec ID : V_MPEG4/ISO/AVCDuration : 21 min 2 sBit rate : 1 200 kb/sWidth : 720 pixelsHeight : 480 pixelsDisplay aspect ratio : 4:3Frame rate mode : ConstantFrame rate : 29.970 (30000/1001) FPSStandard : NTSCColor space : YUVChroma subsampling : 4:2:0Bit depth : 8 bitsScan type : ProgressiveBits/(Pixel*Frame) : 0.116Stream size : 181 MiB (84%)Writing library : x264 core 130Language : EnglishDefault : NoForced : NoAudioID : 2Format : AAC LCFormat/Info : Advanced Audio Codec Low ComplexityCodec ID : A_AAC-2Duration : 21 min 2 sBit rate : 224 kb/sChannel(s) : 2 channelsChannel layout : L RSampling rate : 44.1 kHzFrame rate : 43.066 FPS (1024 SPF)Compression mode : LossyDelay relative to video : -46 msStream size : 33.7 MiB (16%)Language : EnglishDefault : YesForced : No
Tracker(s)
udp://9.rarbg.com:2710/announceScrape failedU: 54min ago
udp://tracker.opentrackr.org:1337/announceS: 2L: 3C: 65U: 36d, 2hr, 57min ago
udp://tracker.coppersurfer.tk:6969/announceScrape failedU: 36d, 2hr, 56min ago
udp://exodus.desync.com:6969/announce-
udp://tracker.piratepublic.com:1337/announceScrape failedU: 51min ago
udp://tracker.zer0day.to:1337/announceScrape failedU: 5d, 11hr, 30min ago
http://nyaa.tracker.wf:7777/announceS: 2L: 3C: 71U: 35d, 17hr, 41min ago
udp://racker.doko.moe:6969Scrape failedU: 14hr, 43min ago
udp://open.stealth.si:80/announceScrape failedU: 36d, 15hr, 11min ago
Files
215.6 MB
213.7 MB
206.4 MB
206.7 MB
215.4 MB
217.3 MB
217.3 MB
215.9 MB
216.7 MB
219.5 MB
216.5 MB
216.9 MB
215.6 MB
215.1 MB
215.9 MB
218.5 MB
214.2 MB
217.0 MB
215.8 MB
217.8 MB
220.0 MB
219.1 MB
210.4 MB
215.4 MB
216.9 MB
216.2 MB
216.5 MB
217.6 MB
217.0 MB
217.1 MB
216.0 MB
215.3 MB
216.1 MB
219.5 MB
208.5 MB
215.2 MB
216.6 MB
213.9 MB
213.5 MB
209.3 MB
214.7 MB
209.6 MB
216.3 MB
217.6 MB
218.1 MB
218.2 MB
217.9 MB
219.0 MB
219.0 MB
219.2 MB
219.3 MB



0 comment(s):
Add new comment
Name:
Comment Type:
Message:Please be aware of the following before commenting:
  • Anime Tosho provides a mirror of torrents and is not the source. Please understand that uploaders/submitters may not read comments here, so you should check the Source Links section near the top of this page if you wish to contact them
  • Expired links do NOT get reuploaded as files are deleted after we process them
  • Uploads are NOT instant, so please wait for them to be processed
  • The entire uploading process is done by a bot which does NOT read any comments, so asking for links will have no effect on when they show up
  • Critical comments are welcome, however note that statements such as "X is crap" or "Y sucks" are NOT criticisms and aren't useful to anyone. Please back such statements up with reasoning to be both informative and demonstrate that you aren't just some whiney kid.
Image Verification:

Our squiggly text game where the aim is to copy the image into the textbox. All characters are upper case, and there are no zeros (0) and ones (1) in the above image. Apparently bots aren't as good as humans at this game.
beta
Anime DDL+NZB mirror
Current Time: 18/11/2019 13:30



About/FAQs