File Size1.051 GB (1,128,599,709 bytes)
DownloadJheberg: Part1, Part2
MultiUp: Part1, Part2
OpenLoad: Part1, Part2
Sendspace: Part1, Part2, Part3, Part4
SolidFiles: Part1, Part2, Part3
UsersCloud: Part1, Part2
HashesCRC32: 1C1BFBC5, MD5: 89AED9609F909C8B259951726E1739E2, SHA1: 38FB09CEDC5F8A0E856C7B1BEAB4052D693D3240, SHA256: EECFB2F5C466B634010A0F97F3013548089F438BB38E58FC4F65267A1BD1402B, ED2K: 7629E48F850FEEE4D82F20EAF9180380
Screenshots
screenshotscreenshotscreenshotscreenshotscreenshot
SubtitlesAll Attachments | English [eng, ASS]
Additional Info
General
Unique ID                                : 236258418432009401908178797605643796872 (0xB1BDB75D49270FAFAE0AE613B366C188)
Complete name                            : [xPearse] Mobile Fighter G Gundam Episode 1 [1080p].mkv
Format                                   : Matroska
Format version                           : Version 4 / Version 2
File size                                : 1.05 GiB
Duration                                 : 24 min 1 s
Overall bit rate mode                    : Variable
Overall bit rate                         : 6 264 kb/s
Encoded date                             : UTC 2017-01-22 12:12:41
Writing application                      : mkvmerge v9.5.0 ('Quiet Fire') 64bit
Writing library                          : libebml v1.3.4 + libmatroska v1.4.5
Attachments                              : ARCENA.ttf / IMPACT.ttf

Video
ID                                       : 3
Format                                   : AVC
Format/Info                              : Advanced Video Codec
Format profile                           : High@L4.1
Format settings, CABAC                   : Yes
Format settings, ReFrames                : 4 frames
Codec ID                                 : V_MPEG4/ISO/AVC
Duration                                 : 24 min 1 s
Bit rate mode                            : Variable
Bit rate                                 : 5 686 kb/s
Maximum bit rate                         : 15.0 Mb/s
Width                                    : 1 920 pixels
Height                                   : 1 080 pixels
Display aspect ratio                     : 16:9
Frame rate mode                          : Constant
Frame rate                               : 23.976 (24000/1001) FPS
Color space                              : YUV
Chroma subsampling                       : 4:2:0
Bit depth                                : 8 bits
Scan type                                : Progressive
Bits/(Pixel*Frame)                       : 0.114
Stream size                              : 977 MiB (91%)
Default                                  : Yes
Forced                                   : No

Audio #1
ID                                       : 2
Format                                   : AAC
Format/Info                              : Advanced Audio Codec
Format profile                           : LC
Codec ID                                 : A_AAC
Duration                                 : 24 min 1 s
Bit rate                                 : 125 kb/s
Channel(s)                               : 2 channels
Channel positions                        : Front: L R
Sampling rate                            : 48.0 kHz
Frame rate                               : 46.875 FPS (1024 spf)
Compression mode                         : Lossy
Stream size                              : 21.5 MiB (2%)
Title                                    : English
Language                                 : English
Default                                  : No
Forced                                   : No

Audio #2
ID                                       : 4
Format                                   : AC-3
Format/Info                              : Audio Coding 3
Mode extension                           : CM (complete main)
Format settings, Endianness              : Big
Codec ID                                 : A_AC3
Duration                                 : 24 min 1 s
Bit rate mode                            : Constant
Bit rate                                 : 224 kb/s
Channel(s)                               : 2 channels
Channel positions                        : Front: L R
Sampling rate                            : 48.0 kHz
Frame rate                               : 31.250 FPS (1536 spf)
Compression mode                         : Lossy
Stream size                              : 38.5 MiB (4%)
Title                                    : Japanese
Language                                 : Japanese
Default                                  : Yes
Forced                                   : No

Audio #3
ID                                       : 5
Format                                   : AC-3
Format/Info                              : Audio Coding 3
Mode extension                           : CM (complete main)
Format settings, Endianness              : Big
Codec ID                                 : A_AC3
Duration                                 : 24 min 1 s
Bit rate mode                            : Constant
Bit rate                                 : 224 kb/s
Channel(s)                               : 2 channels
Channel positions                        : Front: L R
Sampling rate                            : 48.0 kHz
Frame rate                               : 31.250 FPS (1536 spf)
Compression mode                         : Lossy
Stream size                              : 38.5 MiB (4%)
Title                                    : Japanese Commentary
Language                                 : Japanese
Default                                  : No
Forced                                   : No

Text
ID                                       : 1
Format                                   : ASS
Codec ID                                 : S_TEXT/ASS
Codec ID/Info                            : Advanced Sub Station Alpha
Duration                                 : 23 min 55 s
Bit rate                                 : 84 b/s
Count of elements                        : 281
Compression mode                         : Lossless
Stream size                              : 14.9 KiB (0%)
Title                                    : English
Language                                 : English
Default                                  : Yes
Forced                                   : No

Menu
00:00:00.000                             : en:Chapter 1
00:01:21.033                             : en:Chapter 2
00:11:01.367                             : en:Chapter 3
00:22:17.333                             : en:Chapter 4
00:23:27.367                             : en:Chapter 5
beta
Anime DDL+NZB mirror
Current Time: 13/06/2024 08:21



About/FAQs

Discord