[VON] Mob Psycho 100 - 04 [1080p][88980EFB].mkv


File Size1.363 GB (1,463,841,211 bytes)
DownloadUpfile.mobi
ClickNUpload: Part1, Part2
Jheberg: Part1, Part2
MultiUp: Part1, Part2
  • ClickNupload
  • Fichier
  • Filerio
  • Free
  • Fufox
  • HugeFiles
  • Mightyupload
  • ToutBox
  • Turbobit
  • UpToBox
  • Uplea
  • UploadBaz
  • Uploadable
  • Uploaded
  • Uppit
  • Userscloud

OpenLoad: Part1, Part2
Sendspace: Part1, Part2, Part3, Part4, Part5
SolidFiles: Part1, Part2, Part3
Encrypted DownloadDirect: Part1, Part2
Password:
HashesCRC32: 88980EFB, MD5: 904033E6F28763F0C3CF639833C761C9, SHA1: 6F02B0279C6AAE58FCE6B3F93D9D3C86D1E14B17, SHA256: D38D3F1C26E5772A86F3BA611C116CA168C49159E5F445073812D22EFB515D1F, ED2K: C53EABD3995A7E12420AE1318D90307D
Screenshots
screenshotscreenshotscreenshotscreenshotscreenshot
SubtitlesAll Attachments | Glue [eng, ASS]
Additional Info
General
Unique ID                                : 213947217074564882480705656146133885549 (0xA0F4BC354B9A293FB0279A1996A1A26D)
Complete name                            : [VON] Mob Psycho 100 - 04 [1080p][88980EFB].mkv
Format                                   : Matroska
Format version                           : Version 4 / Version 2
File size                                : 1.36 GiB
Duration                                 : 24 min 11 s
Overall bit rate mode                    : Variable
Overall bit rate                         : 8 070 kb/s
Encoded date                             : UTC 2017-12-17 09:57:27
Writing application                      : mkvmerge v18.0.0 ('Apricity') 64-bit
Writing library                          : libebml v1.3.5 + libmatroska v1.4.8
Attachments                              : Aero Matics Bold.ttf / ARCENA.ttf / Brush Strokes_1.ttf / Clearface SSi Bold.ttf / DCPRyuuMoji-W12.ttf / Discognate.otf / Eager_Naturalist.ttf / FOT-NewCinemaBStd-D.otf / Hand Of Sean Pro.otf / Hira v8_0.ttf / montara-gothic-webfont.ttf / RaysHand-Regular.ttf

Video
ID                                       : 1
Format                                   : AVC
Format/Info                              : Advanced Video Codec
Format profile                           : High@L5
Format settings, CABAC                   : Yes
Format settings, ReFrames                : 10 frames
Codec ID                                 : V_MPEG4/ISO/AVC
Duration                                 : 24 min 11 s
Bit rate                                 : 7 288 kb/s
Width                                    : 1 920 pixels
Height                                   : 1 080 pixels
Display aspect ratio                     : 16:9
Frame rate mode                          : Constant
Frame rate                               : 23.976 (24000/1001) FPS
Color space                              : YUV
Chroma subsampling                       : 4:2:0
Bit depth                                : 8 bits
Scan type                                : Progressive
Bits/(Pixel*Frame)                       : 0.147
Stream size                              : 1.23 GiB (90%)
Title                                    : SFEO-Raws
Writing library                          : x264 core 150 r2773+45 df9a66c 7mod [8-bit@all X86_64]
Encoding settings                        : cabac=1 / ref=10 / deblock=1:0:0 / analyse=0x3:0x113 / me=umh / subme=9 / psy=1 / fade_compensate=0.00 / psy_rd=0.80:0.25 / mixed_ref=1 / me_range=32 / chroma_me=1 / trellis=1 / 8x8dct=1 / cqm=0 / deadzone=21,11 / fast_pskip=0 / chroma_qp_offset=-4 / threads=24 / lookahead_threads=2 / sliced_threads=0 / nr=0 / decimate=1 / interlaced=0 / bluray_compat=0 / constrained_intra=0 / fgo=1 / bframes=8 / b_pyramid=2 / b_adapt=1 / b_bias=0 / direct=1 / weightb=1 / open_gop=0 / weightp=2 / keyint=250 / keyint_min=23 / scenecut=40 / intra_refresh=0 / rc_lookahead=70 / rc=crf / mbtree=1 / crf=17.0000 / qcomp=0.60 / qpmin=0:0:0 / qpmax=69:69:69 / qpstep=4 / ip_ratio=1.40 / aq=3:0.80 / aq-sensitivity=10.00 / aq-factor=1.00:1.00:1.00 / aq2=0 / aq3=0
Language                                 : English
Default                                  : Yes
Forced                                   : No

Audio
ID                                       : 2
Format                                   : FLAC
Format/Info                              : Free Lossless Audio Codec
Codec ID                                 : A_FLAC
Duration                                 : 24 min 11 s
Bit rate mode                            : Variable
Bit rate                                 : 745 kb/s
Channel(s)                               : 2 channels
Channel positions                        : Front: L R
Sampling rate                            : 48.0 kHz
Frame rate                               : 11.719 FPS (4096 spf)
Bit depth                                : 16 bits
Stream size                              : 129 MiB (9%)
Title                                    : FLAC
Writing library                          : libFLAC 1.2.1 (UTC 2007-09-17)
Language                                 : Japanese
Default                                  : Yes
Forced                                   : No

Text
ID                                       : 3
Format                                   : ASS
Codec ID                                 : S_TEXT/ASS
Codec ID/Info                            : Advanced Sub Station Alpha
Duration                                 : 24 min 10 s
Bit rate                                 : 1 788 b/s
Count of elements                        : 2432
Compression mode                         : Lossless
Stream size                              : 317 KiB (0%)
Title                                    : Glue
Language                                 : English
Default                                  : Yes
Forced                                   : No

Menu
00:00:00.033                             : en:Intro
00:00:56.030                             : en:OP
00:02:26.000                             : en:Part A
00:12:18.000                             : en:Part B
00:22:25.030                             : en:ED
00:23:54.990                             : en:Preview

Other Files in this Torrent
[VON] Mob Psycho 100 - 04 [1080p][88980EFB].mkv
beta
Anime DDL+NZB mirror
Current Time: 06/12/2019 21:26



About/FAQs